Classical Stretch The Esmonde Technique Season 7, The Health series Episodes 1-30 [2010, Пилатес, DVDRip, ENG] (Видеоурок)


Статистика раздачи [Обновить пиров]
Размер:  6.01 GB   |    Зарегистрирован:  10 месяцев 13 дней   |    Скачан:  0 раз

Полного источника не было: Никогда

 
   
 
 
 

[Цитировать]

Classical Stretch The Esmonde Technique Season 7, The Health series Episodes 1-30
Страна: USA
Тематика: Пилатес
Тип раздаваемого материала: Видеоурок
Продолжительность: 30 x 0:24:00
Год выпуска: 2010
Язык: Английский
Перевод: Отсутствует
Описание: The workouts are equally challenging as Season 6 aiming to increase flexibility and strength throughout the entire body. They will help slenderise the body, improve posture and relive you of general aches and pains. These shows are a perfect combination of stretching and strengthening at a fitness level that all can participate in and enjoy!
Тренировки равноценно трудные, также как и в шестом сезоне, и направлены на увеличение гибкости и силы всего тела. Тренировки помогут стать стройнее, улучшить осанку и избавить вас от болей. Эти выпуски - идеальное сочетания растяжки и укрепления для тела, которым могут заниматься люди с разным уровнем подготовки!
Также я сначала пережал VOB'ы в avi, а потом резал их по ключевым кадрам - из-за чего кое-где в начале присутствует 2-3 секунды видео из предыдущего урока.
Качество: DVDRip
Видео: Xvid 720x480 29.97fps 1024kbps
Аудио: MP3 44100Hz stereo 185kbps

Скриншоты

Mediainfo

General
Complete name : E:\Torrents\Sport\Classical Stretch Season 7\701-Reverse the Aging process.avi
Format : AVI
Format/Info : Audio Video Interleave
File size : 208 MiB
Duration : 23mn 45s
Overall bit rate mode : Variable
Overall bit rate : 1 226 Kbps
Writing application : VirtualDubMod 1.5.10.2 (build 2540/release)
Writing library : VirtualDubMod build 2540/release
Video
ID : 0
Format : MPEG-4 Visual
Format profile : Simple@L3
Format settings, BVOP : No
Format settings, QPel : No
Format settings, GMC : No warppoints
Format settings, Matrix : Default (H.263)
Codec ID : XVID
Codec ID/Hint : XviD
Duration : 23mn 45s
Bit rate : 1 024 Kbps
Width : 720 pixels
Height : 480 pixels
Display aspect ratio : 3:2
Frame rate : 29.970 fps
Standard : NTSC
Color space : YUV
Chroma subsampling : 4:2:0
Bit depth : 8 bits
Scan type : Progressive
Compression mode : Lossy
Bits/(Pixel*Frame) : 0.099
Stream size : 174 MiB (84%)
Writing library : XviD 63
Audio
ID : 1
Format : MPEG Audio
Format version : Version 1
Format profile : Layer 3
Mode : Joint stereo
Mode extension : MS Stereo
Codec ID : 55
Codec ID/Hint : MP3
Duration : 23mn 45s
Bit rate mode : Variable
Bit rate : 185 Kbps
Channel(s) : 2 channels
Sampling rate : 44.1 KHz
Compression mode : Lossy
Stream size : 32.0 MiB (15%)
Alignment : Aligned on interleaves
Interleave, duration : 26 ms (0.78 video frame)
Interleave, preload duration : 89 ms
Writing library : LAME3.98.4
[teatrix.ru].t14200.torrent 
Торрент: Зарегистрирован [ 2016-01-23 01:15 ] · ED19830C24F98EAA741E39040577B5D63A001AA3

Скачать .torrent

Скачать

18 KB

Статус: проверено
Скачан: 0 раз
Размер: 6.01 GB
terms.php



Быстрый ответ

Имя:

      
Для отправки сообщений необходимо включить JavaScript
Показать сообщения:    

Текущее время: 05-Дек 03:26

Часовой пояс: UTC + 3


Вы можете начинать темы
Вы можете отвечать на сообщения
Вы не можете редактировать свои сообщения
Вы не можете удалять свои сообщения
Вы не можете голосовать в опросах
Вы не можете прикреплять файлы к сообщениям
Вы можете скачивать файлы