Edward Vilga - Yoga in Bed [2005 г., йога, DVDRip, ENG] (Видеоурок)


Статистика раздачи [Обновить пиров]
Размер:  822 MB   |    Зарегистрирован:  10 месяцев 11 дней   |    Скачан:  0 раз

Полного источника не было: Никогда

 
   
 
 
 

[Цитировать]

Edward Vilga - Yoga in Bed-Год выпуска: 2005
Страна: Канада
Жанр: йога
Язык: Английский
Продолжительность: 00:55:36-Описание:
20 асан, которые не просто можно, а нужно делать... в пижаме! Да-да, это не ошибка!
Курс "Йога в постели" позволяет по-особому начать новый день, не вставая с кровати (теперь вы будете всегда встать с "той ноги"!).
Если вы новичок, и только еще присматриваетесь к йоге, но не знаете, с чего же начать, то этот курс для вас. Или вы уже продвинутый любитель йоги, но у вас катастрофически не хватает времени на полноценную тренировку.
Курс представляет собой серию тонизирующих асан, которые подарят вам заряд энергии и позитива с самого утра (помните - даже не вставая с постели!), а вечерняя практика принесет долгожданное расслабление и отдых.
Что даст вам регулярная практика?
1) вы улучшите осанку и повысите гибкость;
2) йога сделает вас более сильными, а тело более стройным и подтянутым;
3) регулярная практика - залог глубокого и спокойного ночного сна;
4) повышенная устойчивость к жизненным стрессам.-Качество: DVDRip
Формат: AVI
Видео: 640x480 (1.33:1), 23.976 fps, XviD build 65 ~1735 kbps avg, 0.23 bit/pixel
Аудио: 48 kHz, MPEG Layer 3, 2 ch, ~128.00 kbps-

Скриншоты видео


Дополнительно


Product Description
20 Asanas to do in Pajamas
Whether you're a total beginner looking for a fun way to start, or a yoga enthusiast with an impossible schedule, Yoga in Bed is for you.
This DVD features an energizing morning series to prime you for the day ahead -- plus a relaxing evening routine to chill you out.
Regular practice will:
* Improve flexibility & posture
* Tone and strengthen you
* Insure a good night's sleep
* Release daily stress-Edward Vilga is a nationally certified yoga instructor. He completed his training at the Laughing Lotus in New York City where he currently teaches. He teaches classes and workshops ranging from "Yoga for Health Professionals Seminar" at Mt. Sinai, to Partner Yoga, and Yoga for Dudes introductory weekends for stiff guys. His experiences as a teacher include beginning students in their mid-70s to third graders; pregnant women to individuals with life-challenging illnesses and disabilities. Edward is a Yale graduate as well as an accomplished filmmaker and novelist.

Отчет MI

GeneralComplete name : Yoga In Bed_01 Morning Poses.aviFormat : AVIFormat/Info : Audio Video InterleaveFile size : 221 MiBDuration : 16mn 29sOverall bit rate : 1 873 KbpsMovie name : Yoga In Bed_01 Morning PosesWriting application : FairUse Wizard
VideoID : 0Format : MPEG-4 VisualFormat profile : Advanced Simple@L5Format settings, BVOP : 1Format settings, QPel : NoFormat settings, GMC : No warppointsFormat settings, Matrix : CustomCodec ID : XVIDCodec ID/Hint : XviDDuration : 16mn 29sBit rate : 1 736 KbpsWidth : 640 pixelsHeight : 480 pixelsDisplay aspect ratio : 4:3Frame rate : 23.976 fpsColor space : YUVChroma subsampling : 4:2:0Bit depth : 8 bitsScan type : ProgressiveCompression mode : LossyBits/(Pixel*Frame) : 0.236Stream size : 205 MiB (93%)Writing library : XviD 65
AudioID : 1Format : MPEG AudioFormat version : Version 1Format profile : Layer 3Mode : Joint stereoMode extension : MS StereoCodec ID : 55Codec ID/Hint : MP3Duration : 16mn 29sBit rate mode : ConstantBit rate : 128 KbpsChannel(s) : 2 channelsSampling rate : 48.0 KHzCompression mode : LossyStream size : 15.1 MiB (7%)Alignment : Split accross interleavesInterleave, duration : 42 ms (1.00 video frame)Interleave, preload duration : 500 ms
[teatrix.ru].t14206.torrent 
Торрент: Зарегистрирован [ 2016-01-23 01:15 ] · 3E46EDF5FFC0C23EEA5DEE9D1ED8A31E11A99165

Скачать .torrent

Скачать

17 KB

Статус: проверено
Скачан: 0 раз
Размер: 822 MB
terms.php



Быстрый ответ

Имя:

      
Для отправки сообщений необходимо включить JavaScript
Показать сообщения:    

Текущее время: 03-Дек 03:22

Часовой пояс: UTC + 3


Вы можете начинать темы
Вы можете отвечать на сообщения
Вы не можете редактировать свои сообщения
Вы не можете удалять свои сообщения
Вы не можете голосовать в опросах
Вы не можете прикреплять файлы к сообщениям
Вы можете скачивать файлы