(Classical) Johann Gottlieb Graun, Carl Heinrich Graun - Trios for 2 Violins & Basso - Les Amis de Philippe - 2009, FLAC (image+.cue) lossless


 

[Цитировать]

Johann Gottlieb Graun, Carl Heinrich Graun - Trios for 2 Violins & Basso - Les Amis de Philippe
Жанр: Classical
Страна-производитель диска: Germany
Год издания диска: 2009
Издатель (лейбл): CPO
Номер по каталогу: cpo 777423-2
Дата записи: 2006
Аудиокодек: FLAC
Тип рипа: image+.cue
Битрейт аудио: lossless
Продолжительность: 75:40
Источник: собственный рип
Наличие сканов в содержимом раздачи: да
Треклист:
Johann Gottlieb Graun (1702/03-1771) and/or
Carl Heinrich Graun (1703/04-1759)
[1]-[3] Trio in A major, GraunWV A:XV:13
[4]-[7] Trio in D major, GraunWV Cv:XV:100
[8]-[10] Trio in C minor, GraunWV Av:XV:19
[11]-[13] Trio in D major, GraunWV Av:XV:23
[14]-[16] Trio in E major, GraunWV Av:XV:27
Исполнители:
Les Amis de Philippe
Anne Schumann violin
Dorothea Vogel violin
Monika Schwamberger cello
Ludger Rémy fortepiano

Лог создания рипа

Exact Audio Copy V1.0 beta 3 from 29. August 2011
EAC extraction logfile from 9. May 2015, 19:25
Les Amis de Philippe / Graun - Trios for 2 Violins & Basso
Used drive : HL-DT-STDVDRAM GU70N Adapter: 0 ID: 0
Read mode : SecureUtilize accurate stream : YesDefeat audio cache : YesMake use of C2 pointers : No
Read offset correction : 48Overread into Lead-In and Lead-Out : NoFill up missing offset samples with silence : YesDelete leading and trailing silent blocks : NoNull samples used in CRC calculations : YesUsed interface : Native Win32 interface for Win NT & 2000
Used output format : User Defined EncoderSelected bitrate : 128 kBit/sQuality : HighAdd ID3 tag : NoCommand line compressor : C:\Program Files (x86)\Exact Audio Copy\Flac\flac.exeAdditional command line options : -V -8 -T "Date=%year%" -T "Genre=%genre%" %source%
TOC of the extracted CD
Track | Start | Length | Start sector | End sector --------------------------------------------------------- 1 | 0:00.00 | 4:45.52 | 0 | 21426 2 | 4:45.52 | 3:29.12 | 21427 | 37113 3 | 8:14.64 | 3:32.14 | 37114 | 53027 4 | 11:47.03 | 3:53.04 | 53028 | 70506 5 | 15:40.07 | 4:40.24 | 70507 | 91530 6 | 20:20.31 | 3:48.29 | 91531 | 108659 7 | 24:08.60 | 4:23.08 | 108660 | 128392 8 | 28:31.68 | 4:59.01 | 128393 | 150818 9 | 33:30.69 | 5:38.31 | 150819 | 176199 10 | 39:09.25 | 5:42.03 | 176200 | 201852 11 | 44:51.28 | 4:40.10 | 201853 | 222862 12 | 49:31.38 | 5:30.22 | 222863 | 247634 13 | 55:01.60 | 4:49.16 | 247635 | 269325 14 | 59:51.01 | 4:52.40 | 269326 | 291265 15 | 64:43.41 | 6:42.61 | 291266 | 321476 16 | 71:26.27 | 4:12.38 | 321477 | 340414
Range status and errors
Selected range
Filename C:\temp\Graun - Trios for 2 Violins & Basso\Graun - Trios for 2 Violins & Basso.wav
Peak level 96.9 % Extraction speed 2.3 X Range quality 100.0 % Test CRC 7AC97DB4 Copy CRC 7AC97DB4 Copy OK
No errors occurred
AccurateRip summary
Track 1 accurately ripped (confidence 6) [1B4ECDB3] (AR v2)Track 2 accurately ripped (confidence 6) [1B54D951] (AR v2)Track 3 accurately ripped (confidence 6) [1ADC33D1] (AR v2)Track 4 accurately ripped (confidence 6) [B52A93E0] (AR v2)Track 5 accurately ripped (confidence 6) [D83250AA] (AR v2)Track 6 accurately ripped (confidence 6) [7F8FD7D5] (AR v2)Track 7 accurately ripped (confidence 6) [1129B5AF] (AR v2)Track 8 accurately ripped (confidence 6) [17CEF0D0] (AR v2)Track 9 accurately ripped (confidence 6) [998276EF] (AR v2)Track 10 accurately ripped (confidence 6) [7CCB3FFE] (AR v2)Track 11 accurately ripped (confidence 6) [D9481488] (AR v2)Track 12 accurately ripped (confidence 6) [C2797908] (AR v2)Track 13 accurately ripped (confidence 6) [240B8D5C] (AR v2)Track 14 accurately ripped (confidence 6) [7415D582] (AR v2)Track 15 accurately ripped (confidence 6) [CC52FF2B] (AR v2)Track 16 accurately ripped (confidence 6) [8A7368EF] (AR v2)
All tracks accurately ripped
End of status report
==== Log checksum 05D590E8424834B6E3D6591B73438469CC5445B4F9431D8448EDDF4D0C98EEC5 ====



Показать сообщения:    

Текущее время: 10-Дек 09:56

Часовой пояс: UTC + 3


Вы не можете начинать темы
Вы не можете отвечать на сообщения
Вы не можете редактировать свои сообщения
Вы не можете удалять свои сообщения
Вы не можете голосовать в опросах
Вы не можете прикреплять файлы к сообщениям
Вы не можете скачивать файлы