Жорж Бизе - Кармен (Элина Гаранча, Роберто Аланья) / Georges Bizet - Carmen (Elina Garanca, Roberto Alagna, Teddy Tahu Rhodes) (Yannick Nezet-Seguin / Richard Eyre) [2010, Opera, HDRip-AVC 720p] Sub [Русские][Eng, Ger, Fre, Spa, Chi.]


 

[Цитировать]

-«Метрополитен Опера» (сезон 2009-10) представляет
Жорж Бизе · Georges Bizet
25 октября (October 25,) 1838 — 3 июня (June 3,) 1875
»« К А Р М Е Н »« С A R M E N »«
Либретто Анри Мильяка и Лудовико Галеви по мотивам новеллы Проспера Мериме (1845)
-- Год записи: 2010
Год выхода: 2012
Лейбл/Страна: DG · Germany
Язык: Французский
ПЕРЕВОД: Субтитры
Субтитры/Subtitles: РУССКИЕ (Спасибо, АННА)
English, German, French, Spanish, Chinese
Продолжительность: 167 min.
КАРМЕН Элина ГАРАНЧА Elīna Garanča
ДОН ХОЗЕ Роберто АЛАНЬЯ Roberto Alagna
ЭСКАМИЛЬО Тедди ТАХУ-РОДЕС Teddy Tahu Rhodes
МИКАЭЛА Барабара ФРИТТОЛИ Barbara Frittoli
ЦУНИГА Кит МИЛЛЕР Keith Miller
МОРАЛЕС Тревор ШЬЮНЕМАНН Trevor Scheunemann
ФРАСКИТА Елисабет КАБАЛЛЕРО Elizabeth Caballero
МЕРСЕДЕС Сандра ЭДДИ Sandra Piques Eddy
ДАНКАЙРО Эрл ПАТРИАРКО Earle Patriarco
РЕМЕНДАДО Кит ДЖЕЙМСОН Keith Jameson
ХОР и ОРКЕСТР театра Метрополитен Опера
ДИРИЖЁР Янник НЕЗЕ-СЕГЕН Yannick Nézet-Séguin
РЕЖИССЁР Ричард ЭЙР Richard Eyre

Качество видео: HDRip-AVC
♫ Sample ♫
Исходник: BDRip 1080 by Vilboa
Контейнер: MKV
Видео поток: H.264, 1280x720, 3753 kbps, 29,970 fps.
Аудио поток: French, DTS 1509 kbps, 48,0 KHz, 24 bit, 6 ch
Навигация по главам: Есть

Скриншоты

MediaInfo


-

x264.log


avs [info]: 1280x720p 1:1 @ 10000000/333667 fps (cfr)
x264 [info]: using SAR=1/1
x264 [info]: using cpu capabilities: MMX2 SSE2Fast LZCNT
x264 [info]: profile High, level 4.1
x264 [info]: frame I:1903 Avg QP:17.40 size: 86508
x264 [info]: frame P:68407 Avg QP:18.40 size: 32507
x264 [info]: frame B:229642 Avg QP:20.68 size: 10048
x264 [info]: consecutive B-frames: 1.3% 1.6% 10.1% 35.7% 14.7% 35.3% 1.1% 0.1% 0.0% 0.0%
x264 [info]: mb I I16..4: 2.6% 85.0% 12.4%
x264 [info]: mb P I16..4: 2.0% 18.9% 1.6% P16..4: 30.8% 33.3% 10.2% 0.0% 0.0% skip: 3.1%
x264 [info]: mb B I16..4: 0.8% 2.6% 0.2% B16..8: 32.1% 19.2% 3.0% direct: 6.9% skip:35.2% L0:39.5% L1:46.7% BI:13.8%
x264 [info]: 8x8 transform intra:80.3% inter:68.6%
x264 [info]: coded y,uvDC,uvAC intra: 61.7% 82.4% 48.4% inter: 16.0% 27.5% 3.3%
x264 [info]: i16 v,h,dc,p: 44% 19% 12% 25%
x264 [info]: i8 v,h,dc,ddl,ddr,vr,hd,vl,hu: 13% 8% 22% 7% 8% 10% 9% 10% 12%
x264 [info]: i4 v,h,dc,ddl,ddr,vr,hd,vl,hu: 21% 9% 19% 6% 10% 11% 8% 8% 8%
x264 [info]: i8c dc,h,v,p: 41% 25% 21% 13%
x264 [info]: Weighted P-Frames: Y:2.0% UV:0.9%
x264 [info]: ref P L0: 49.3% 9.5% 19.1% 5.4% 5.0% 3.5% 3.5% 2.1% 2.2% 0.4% 0.0%
x264 [info]: ref B L0: 78.6% 9.5% 4.2% 2.5% 1.9% 1.7% 1.0% 0.5%
x264 [info]: ref B L1: 95.1% 4.9%
x264 [info]: kb/s:3753.53
-
General
Unique ID : 222071743065325454049914917424022121234 (0xA711764422E67C1AB06D0182A08B6B12)
Complete name : Carmen (MetOpera, 2010) HDRip 720p.mkv
Format : Matroska
Format version : Version 4 / Version 2
File size : 6.15 GiB
Duration : 2h 46mn
Overall bit rate : 5 276 Kbps
Encoded date : UTC 2016-01-22 18:38:05
Writing application : mkvmerge v8.3.0 ('Over the Horizon') 32bit
Writing library : libebml v1.3.1 + libmatroska v1.4.2
Video
ID : 1
Format : AVC
Format/Info : Advanced Video Codec
Format profile : High@L4.1
Format settings, CABAC : Yes
Format settings, ReFrames : 9 frames
Codec ID : V_MPEG4/ISO/AVC
Duration : 2h 46mn
Bit rate : 3 662 Kbps
Width : 1 280 pixels
Height : 720 pixels
Display aspect ratio : 16:9
Frame rate mode : Constant
Frame rate : 29.970 fps
Color space : YUV
Chroma subsampling : 4:2:0
Bit depth : 8 bits
Scan type : Progressive
Bits/(Pixel*Frame) : 0.133
Stream size : 4.27 GiB (69%)
Writing library : x264 core 146 r2538 121396c
Encoding settings : cabac=1 / ref=9 / deblock=1:-3:-3 / analyse=0x3:0x113 / me=umh / subme=11 / psy=1 / psy_rd=1.05:0.15 / mixed_ref=1 / me_range=32 / chroma_me=1 / trellis=2 / 8x8dct=1 / cqm=0 / deadzone=21,11 / fast_pskip=1 / chroma_qp_offset=-3 / threads=3 / lookahead_threads=1 / sliced_threads=0 / nr=0 / decimate=1 / interlaced=0 / bluray_compat=0 / constrained_intra=0 / bframes=9 / b_pyramid=2 / b_adapt=2 / b_bias=0 / direct=1 / weightb=1 / open_gop=0 / weightp=2 / keyint=250 / keyint_min=25 / scenecut=40 / intra_refresh=0 / rc_lookahead=40 / rc=crf / mbtree=0 / crf=19.4 / qcomp=0.65 / qpmin=0 / qpmax=69 / qpstep=4 / vbv_maxrate=14000 / vbv_bufsize=14000 / crf_max=0.0 / nal_hrd=none / filler=0 / ip_ratio=1.40 / pb_ratio=1.30 / aq=1:0.90
Language : English
Default : Yes
Forced : No
Audio
ID : 2
Format : DTS
Format/Info : Digital Theater Systems
Mode : 16
Format settings, Endianness : Big
Codec ID : A_DTS
Duration : 2h 46mn
Bit rate mode : Constant
Bit rate : 1 509 Kbps
Channel(s) : 6 channels
Channel positions : Front: L C R, Side: L R, LFE
Sampling rate : 48.0 KHz
Bit depth : 24 bits
Compression mode : Lossy
Stream size : 1.76 GiB (29%)
Language : French
Default : Yes
Forced : No
Text #1
ID : 3
Format : UTF-8
Codec ID : S_TEXT/UTF8
Codec ID/Info : UTF-8 Plain Text
Language : Russian
Default : Yes
Forced : Yes
Text #2
ID : 4
Format : VobSub
Muxing mode : zlib
Codec ID : S_VOBSUB
Codec ID/Info : Picture based subtitle format used on DVDs
Language : English
Default : No
Forced : No
Text #3
ID : 5
Format : VobSub
Muxing mode : zlib
Codec ID : S_VOBSUB
Codec ID/Info : Picture based subtitle format used on DVDs
Language : German
Default : No
Forced : No
Text #4
ID : 6
Format : VobSub
Muxing mode : zlib
Codec ID : S_VOBSUB
Codec ID/Info : Picture based subtitle format used on DVDs
Language : French
Default : No
Forced : No
Text #5
ID : 7
Format : VobSub
Muxing mode : zlib
Codec ID : S_VOBSUB
Codec ID/Info : Picture based subtitle format used on DVDs
Language : Spanish
Default : No
Forced : No
Text #6
ID : 8
Format : VobSub
Muxing mode : zlib
Codec ID : S_VOBSUB
Codec ID/Info : Picture based subtitle format used on DVDs
Language : Chinese
Default : No
Forced : No
Menu
00:00:00.000 : fr:Introduction
00:02:45.465 : fr:Acte 1
00:55:03.048 : fr:Entracte
00:55:49.946 : fr:Acte 2
01:37:11.892 : fr:Interview / Entracte
01:41:51.939 : fr:Acte 3
02:22:00.184 : fr:Entracte
02:22:44.138 : fr:Acte 4
***"A story of beauty and savagery...love and hate...splendor and shame..."



Показать сообщения:    

Текущее время: 05-Дек 01:24

Часовой пояс: UTC + 3


Вы не можете начинать темы
Вы не можете отвечать на сообщения
Вы не можете редактировать свои сообщения
Вы не можете удалять свои сообщения
Вы не можете голосовать в опросах
Вы не можете прикреплять файлы к сообщениям
Вы не можете скачивать файлы