(Orchestral) Н.Мясковский - Симфония №21 • Д.Кабалевский - Симфония №2 (D.Measham) | Д.Шостакович - »Гамлет« (B.Herrmann) - 1994, FLAC (image+.cue) lossless


 

[Цитировать]

Myaskovsky • Kabalevsky • Shostakovich
Symphony No.21 | Symphony No.2 | Incidental music to »Hamlet«
-
-
- Жанр: Orchestral
Страна-производитель диска: England
Год издания диска: 1994
Издатель (лейбл): Unicorn-Kanchana
Дата записи: 1973/75
Аудиокодек: FLAC
Тип рипа: image+.cue
Битрейт аудио: lossless
Продолжительность: 62'13''
Источник: собственный рип
Наличие сканов в содержимом раздачи: да
Треклист:
[01] Николай Мясковский - Симфония №21
[02] Дмитрий Кабалевский - Симфония №2: I. Allegro quasi presto
[03] II. Andante non troppo
[04] III. Prestissimo scherzando
[05] Дмитрий Шостакович - »Гамлет«: Увертюра
[06] Бал во дворце
[07] Пизрак
[08] Отравление
[09] Игроки
[10] Дуэль и смерть Гамлета
Исполнители:
New Philharmonia Orchestra - David Measham [1-4]
National Philharmonic Orchestra - Bernard Herrmann-

Лог создания рипа

Exact Audio Copy V1.0 beta 4 from 7. December 2014
EAC extraction logfile from 22. August 2015, 16:51
New Philharmonia Orchestra - David Measham / Myaskovsky - Kabalevsky - Shostakovich
Used drive : TEAC CD-W540E Adapter: 1 ID: 1
Read mode : SecureUtilize accurate stream : YesDefeat audio cache : YesMake use of C2 pointers : No
Read offset correction : 686Overread into Lead-In and Lead-Out : NoFill up missing offset samples with silence : YesDelete leading and trailing silent blocks : NoNull samples used in CRC calculations : YesUsed interface : Native Win32 interface for Win NT & 2000
Used output format : User Defined EncoderSelected bitrate : 1024 kBit/sQuality : HighAdd ID3 tag : NoCommand line compressor : C:\Program Files (x86)\FLAC\flac.exeAdditional command line options : -T "COMMENT=rip by el coronel" -8 -V %source%
TOC of the extracted CD
Track | Start | Length | Start sector | End sector --------------------------------------------------------- 1 | 0:00.00 | 16:19.42 | 0 | 73466 2 | 16:19.42 | 7:15.23 | 73467 | 106114 3 | 23:34.65 | 9:23.17 | 106115 | 148356 4 | 32:58.07 | 7:32.18 | 148357 | 182274 5 | 40:30.25 | 3:23.72 | 182275 | 197571 6 | 43:54.22 | 3:06.25 | 197572 | 211546 7 | 47:00.47 | 5:20.10 | 211547 | 235556 8 | 52:20.57 | 4:21.08 | 235557 | 255139 9 | 56:41.65 | 2:55.40 | 255140 | 268304 10 | 59:37.30 | 2:35.45 | 268305 | 279974
Range status and errors
Selected range
Filename F:\Music\Myaskovsky 21, Kabalevsky 2 (Measham)\CD.wav
Peak level 100.0 % Extraction speed 3.0 X Range quality 99.9 % Test CRC 3015E11F Copy CRC 3015E11F Copy OK
No errors occurred
AccurateRip summary
Track 1 accurately ripped (confidence 2) [275A5E18] (AR v2)Track 2 accurately ripped (confidence 2) [8A3E44DC] (AR v2)Track 3 accurately ripped (confidence 2) [FE94E59A] (AR v2)Track 4 cannot be verified as accurate (confidence 3) [F5CA189C], AccurateRip returned [2E65259B] (AR v2)Track 5 cannot be verified as accurate (confidence 3) [1124BD21], AccurateRip returned [8597095B] (AR v2)Track 6 cannot be verified as accurate (confidence 3) [BD8566D0], AccurateRip returned [396BE188] (AR v2)Track 7 cannot be verified as accurate (confidence 3) [FCCE0141], AccurateRip returned [182A865E] (AR v2)Track 8 cannot be verified as accurate (confidence 3) [5A8B3AC8], AccurateRip returned [0FADA7C2] (AR v2)Track 9 cannot be verified as accurate (confidence 3) [25F9EE0E], AccurateRip returned [50C36CBC] (AR v2)Track 10 cannot be verified as accurate (confidence 3) [73888CB5], AccurateRip returned [127979A3] (AR v2)
3 трек(и) скопированы точно 7 трек(и) не удалось проверить на точность
Some tracks could not be verified as accurate
End of status report
---- CUETools DB Plugin V2.1.4
[CTDB TOCID: 0F.9WifS_sA0QPpttalpGzJJyWA-] disk not present in databaseSubmit result: 0F.9WifS_sA0QPpttalpGzJJyWA- has been uploaded
==== Log checksum 94A60C645E8BBD21A906B264CEDB4017D25CFD3DEFCA65725E0F10ECA91E9065 ====

Содержание индексной карты (.CUE)

REM GENRE ClassicalREM DATE 1994REM DISCID 880E950AREM COMMENT "ExactAudioCopy v1.0b4"CATALOG 0000000000000PERFORMER "New Philharmonia Orchestra - David Measham"TITLE "Myaskovsky - Kabalevsky - Shostakovich"FILE "CD.flac" WAVE TRACK 01 AUDIO TITLE "N.Myaskovsky - Symphony No. 21" PERFORMER "New Philharmonia Orchestra - David Measham" INDEX 01 00:00:00 TRACK 02 AUDIO TITLE "D.Kabalevsky - Symphony No. 2: I. Allegro quasi presto" PERFORMER "New Philharmonia Orchestra - David Measham" INDEX 00 16:09:00 INDEX 01 16:19:42 TRACK 03 AUDIO TITLE "II. Andante non troppo" PERFORMER "New Philharmonia Orchestra - David Measham" INDEX 00 23:29:45 INDEX 01 23:34:65 TRACK 04 AUDIO TITLE "III. Prestissimo scherzando" PERFORMER "New Philharmonia Orchestra - David Measham" INDEX 00 32:56:55 INDEX 01 32:58:07 TRACK 05 AUDIO TITLE "D.Shostakovich - Incidental Music to Hamlet: Introduction" PERFORMER "National Philharmonic Orchestra - Bernard Herrmann" INDEX 00 40:18:05 INDEX 01 40:30:25 TRACK 06 AUDIO TITLE "Ball at the Palace" PERFORMER "National Philharmonic Orchestra - Bernard Herrmann" INDEX 00 43:54:07 INDEX 01 43:54:22 TRACK 07 AUDIO TITLE "The Ghost" PERFORMER "National Philharmonic Orchestra - Bernard Herrmann" INDEX 00 46:56:52 INDEX 01 47:00:47 TRACK 08 AUDIO TITLE "The Poisoning" PERFORMER "National Philharmonic Orchestra - Bernard Herrmann" INDEX 00 52:16:65 INDEX 01 52:20:57 TRACK 09 AUDIO TITLE "The Players" PERFORMER "National Philharmonic Orchestra - Bernard Herrmann" INDEX 00 56:38:35 INDEX 01 56:41:65 TRACK 10 AUDIO TITLE "Duel and death of Hamlet" PERFORMER "National Philharmonic Orchestra - Bernard Herrmann" INDEX 00 59:33:37 INDEX 01 59:37:30
-Доп. информация: еще одна 21-ая Мясковского в копилку



Показать сообщения:    

Текущее время: 05-Дек 11:33

Часовой пояс: UTC + 3


Вы не можете начинать темы
Вы не можете отвечать на сообщения
Вы не можете редактировать свои сообщения
Вы не можете удалять свои сообщения
Вы не можете голосовать в опросах
Вы не можете прикреплять файлы к сообщениям
Вы не можете скачивать файлы