(Classical) Maurice Ravel - Daphnis et Chloe (complete ballet); Pavane pour une infante defunte - Rotterdam Philharmonic Orchestra, Yannick Nezet-Seguin - 2015, FLAC (image+.cue) lossless


 

[Цитировать]

Maurice Ravel - Daphnis et Chloé (complete ballet); Pavane pour une infante défunte - Rotterdam Philharmonic Orchestra, Yannick Nézet-Séguin
Жанр: Classical
Страна-производитель диска: Sweden
Год издания диска: 2015
Издатель (лейбл): BIS
Номер по каталогу: BIS-SACD-1850
Дата записи: 2012
Аудиокодек: FLAC
Тип рипа: image+.cue
Битрейт аудио: lossless
Продолжительность: 63:27
Источник: собственный рип
Наличие сканов в содержимом раздачи: да
Треклист:
Maurice Ravel (1875–1937)
[1]-[13] Daphnis et Chloé (complete ballet) (1909–12)
[14] Pavane pour une infante défunte (1899, orch. 1910)
Исполнители:
Rotterdam Philharmonic Orchestra
Yannick Nézet-Séguin
conductor

Треклист

1. Дафнис и Chloe / Сцена 1/Invocation с нимфами
2. Дафнис и Chloe / Сцена 1/Entrance от Дафнис и Chloe
3. Дафнис и Chloe / Сцена 1/Dance из молодых девушек вокруг Дафнис
4. Дафнис и Chloe / Сцена 1/Dorcon 'S заранее Chloe
5. Дафнис и Chloe / Сцена 1/Daphnis подтверждает свою любовь к Chloe. В Dorcon-Дафнис танцевальные конкурсы для поцелуя от Chloe
6. Дафнис и Chloe / Сцена 1/Dorcon 'S гротеск танец
7. Дафнис и Chloe / Сцена 1/The помилует танец Дафнис
8. Дафнис и Chloe / Сцена 1/The триумф Дафнис и экстатический союз с Chloe
9. Дафнис и Chloe / Сцена 1/Entrance из искусительница Lyceion и танец завесы
10. Дафнис и Chloe / Сцена 1/The вторжения пиратов и Дафнис в безуспешных усилий, чтобы сохранить Chloe
11. Дафнис и Chloe / Сцена 1/Invocation к общеевропейским на нимф и молитва Дафнис
12. Дафнис и Chloe / Сцена 2/Interlude 13. Дафнис и Chloe / Сцена 2/The разнузданный танец пиратов
14. Дафнис и Chloe / Сцена 2/Bryaxis заказов Chloe быть выдвинуты и танца
15. Дафнис и Chloe / Сцена 2/Chloè 'S танец мольба
16. Дафнис и Chloe / Сцена 2/Creatures Пан-видимому, и напугать пиратов, которые бежали в страхе, оставив Chloe наедине с блестящей короной
17. Дафнис и Chloe / Сцена 3/Sunrise, Дафнис ничком на грот из нимф
18. Дафнис и Chloe / Сцена 3/Daphnis и Chloe не воссоединятся
19. Дафнис и Chloe / Сцена 3/Lammon рассказывает, как "Пан Chloe сохранены в память о его любви к нимфе фистула.
20. Дафнис и Chloe / Сцена 3/Pan (Дафнис) моды флейты из тростника, на котором он заявляет о своей любви к фистула
21. Дафнис и Chloe / Сцена 3/Abandoning своих ролей, любителей принять и колени у алтаря из нимф
22. Дафнис и Chloe / Сцена 3/Girls одет как bacchantes вступить с tambourines (1991 Remastered)
23. Дафнис и Chloe / Сцена 3/Young мужчин вторгнуться на сцене, и радостно смятение царит в память победы любителей

Лог создания рипа

Exact Audio Copy V1.1 from 23. June 2015
EAC extraction logfile from 29. September 2015, 21:00
Rotterdam Philharmonic Orchestra, Yannick Nézet-Séguin / Ravel - Daphnis et Chloe
Used drive : HL-DT-STDVDRAM GU70N Adapter: 1 ID: 0
Read mode : SecureUtilize accurate stream : YesDefeat audio cache : YesMake use of C2 pointers : No
Read offset correction : 48Overread into Lead-In and Lead-Out : NoFill up missing offset samples with silence : YesDelete leading and trailing silent blocks : NoNull samples used in CRC calculations : YesUsed interface : Native Win32 interface for Win NT & 2000
Used output format : User Defined EncoderSelected bitrate : 128 kBit/sQuality : HighAdd ID3 tag : NoCommand line compressor : C:\Program Files (x86)\Exact Audio Copy\Flac\flac.exeAdditional command line options : -V -8 -T "Date=%year%" -T "Genre=%genre%" %source%
TOC of the extracted CD
Track | Start | Length | Start sector | End sector --------------------------------------------------------- 1 | 0:00.00 | 3:06.42 | 0 | 13991 2 | 3:06.42 | 5:28.15 | 13992 | 38606 3 | 8:34.57 | 2:41.50 | 38607 | 50731 4 | 11:16.32 | 2:47.38 | 50732 | 63294 5 | 14:03.70 | 3:57.31 | 63295 | 81100 6 | 18:01.26 | 4:04.15 | 81101 | 99415 7 | 22:05.41 | 5:07.21 | 99416 | 122461 8 | 27:12.62 | 2:33.36 | 122462 | 133972 9 | 29:46.23 | 4:33.24 | 133973 | 154471 10 | 34:19.47 | 6:06.17 | 154472 | 181938 11 | 40:25.64 | 5:36.58 | 181939 | 207196 12 | 46:02.47 | 6:07.01 | 207197 | 234722 13 | 52:09.48 | 4:47.45 | 234723 | 256292 14 | 56:57.18 | 6:30.03 | 256293 | 285545
Range status and errors
Selected range
Filename C:\temp\BIS-SACD-1850 - Ravel - Daphnis et Chloe\Ravel - Daphnis et Chloe.wav
Peak level 96.5 % Extraction speed 2.2 X Range quality 100.0 % Test CRC B07559FB Copy CRC B07559FB Copy OK
No errors occurred
AccurateRip summary
Track 1 accurately ripped (confidence 1) [39E1F75B] (AR v2)Track 2 accurately ripped (confidence 1) [E2FD51D2] (AR v2)Track 3 accurately ripped (confidence 1) [41D82D82] (AR v2)Track 4 accurately ripped (confidence 1) [4B87A681] (AR v2)Track 5 accurately ripped (confidence 1) [D7B95FF5] (AR v2)Track 6 accurately ripped (confidence 1) [E2472886] (AR v2)Track 7 accurately ripped (confidence 1) [79AED0C2] (AR v2)Track 8 accurately ripped (confidence 1) [F0B81BB8] (AR v2)Track 9 accurately ripped (confidence 1) [4CA27D21] (AR v2)Track 10 accurately ripped (confidence 1) [51BC5F85] (AR v2)Track 11 accurately ripped (confidence 1) [4F90CFB6] (AR v2)Track 12 accurately ripped (confidence 1) [0BB17B13] (AR v2)Track 13 accurately ripped (confidence 1) [DED37751] (AR v2)Track 14 accurately ripped (confidence 1) [4C68A3F6] (AR v2)
All tracks accurately ripped
End of status report
==== Log checksum 8F83413BBE29ADF53A146914AD901F55892DB5F38CE8591FA12D74C6DC3B1AC0 ====



Показать сообщения:    

Текущее время: 08-Дек 10:56

Часовой пояс: UTC + 3


Вы не можете начинать темы
Вы не можете отвечать на сообщения
Вы не можете редактировать свои сообщения
Вы не можете удалять свои сообщения
Вы не можете голосовать в опросах
Вы не можете прикреплять файлы к сообщениям
Вы не можете скачивать файлы