Рубинт Река "Реформы фигуры часть2" / Rubint Reka Alakreform 2 [2010, фитнес, HUN, DVDRip] (Видеоурок)


Статистика раздачи [Обновить пиров]
Размер:  1.37 GB   |    Зарегистрирован:  10 месяцев 9 дней   |    Скачан:  0 раз

Полного источника не было: Никогда

Личеров:  2  [  0 KB/s  ]   Подробная статистика пиров
 
   
 
 
 

[Цитировать]

Рубинт Река "Реформа фигуры часть2" / Rubint Reka Alakreform 2
Страна: Венгрия
Тематика: фитнес
Тип раздаваемого материала: Видеоурок
Продолжительность: 1:23:53
Год выпуска: 2010
Язык: венгерский
Перевод: Отсутствует
Язык субтитров: нет
Описание: DVD tartalmaz: - 20 perc combizom
- 20 perc felsőtest
- 40 perc EXTRA popsi formáló részt
Szerezd be, és az eredmény mindenért kárpótolni fog:-)!
Доп. информация: Для занятий с Рубинт в этой части требуется степ (но можно и без него), эластичная лента, гантели.
Качество: DVDRip
Формат: AVI
Видео кодек: XviD
Аудио кодек: MPEG-4 Visual
Видео: 704x400, 25 fps, 1840 kbps avg, 0.335 bit/pixel
Аудио: AC-3, 48 kHz, 2ch, 192 kbps

Скриншоты

[/URL]

скрытый текст

Информация по видео
Полное имя : C:\Documents and Settings\Admin\Рабочий стол\rubint reka 1 alakform 2010\RR2010_DVD2.avi
Формат : AVI
Формат/Информация : Audio Video Interleave
Размер файла : 1,37 Гбайт
Продолжительность : 1 ч. 23 м.
Общий поток : 2334 Кбит/сек
Программа кодирования : VirtualDubMod 1.5.4.1 (build 2178/release)
Библиотека кодирования : VirtualDubMod build 2178/release
Видео
Идентификатор : 0
Формат : MPEG-4 Visual
Профиль формата : Advanced Simple@L5
Параметр BVOP формата : 1
Параметр QPel формата : Нет
Параметр GMC формата : Без точки перехода
Параметр матрицы формата : Выборочная
Идентификатор кодека : XVID
Идентификатор кодека/Подсказка : XviD
Продолжительность : 1 ч. 23 м.
Битрейт : 2135 Кбит/сек
Ширина : 704 пикселя
Высота : 400 пикселей
Соотношение сторон : 16:9
Частота кадров : 25,000 кадров/сек
Цветовое пространство : YUV
Субдискретизация насыщенности : 4:2:0
Битовая глубина : 8 бит
Тип развёртки : Прогрессивная
Метод сжатия : С потерями
Бит/(Пиксели*Кадры) : 0.303
Размер потока : 1,25 Гбайт (91%)
Библиотека кодирования : XviD 1.2.1 (UTC 2008-12-04)
Аудио
Идентификатор : 1
Формат : AC-3
Формат/Информация : Audio Coding 3
Расширение режима : CM (complete main)
Идентификатор кодека : 2000
Продолжительность : 1 ч. 23 м.
Вид битрейта : Постоянный
Битрейт : 192 Кбит/сек
Каналы : 2 канала
Расположение каналов : Front: L R
Частота : 48,0 КГц
Битовая глубина : 16 бит
Метод сжатия : С потерями
Задержка видео : 96 мс.
Размер потока : 115 Мбайт (8%)
Выравнивание : Разделение по промежуткам
Продолжительность промежутка : 96 мс. (2,40 видеокадра)
Время предзагрузки промежутка : 96 мс.
[teatrix.ru].t14356.torrent 
Торрент: Зарегистрирован [ 2016-01-24 09:15 ] · 32CCC3E4C4272C09377CED56BD5B7D00AE5E8EFD

Скачать .torrent

Скачать

14 KB

Статус: проверено
Скачан: 0 раз
Размер: 1.37 GB
terms.php



Быстрый ответ

Имя:

      
Для отправки сообщений необходимо включить JavaScript
Показать сообщения:    

Текущее время: 02-Дек 21:16

Часовой пояс: UTC + 3


Вы можете начинать темы
Вы можете отвечать на сообщения
Вы не можете редактировать свои сообщения
Вы не можете удалять свои сообщения
Вы не можете голосовать в опросах
Вы не можете прикреплять файлы к сообщениям
Вы можете скачивать файлы