Рубинт Река "Реформы фигуры" / Rubint Reka Alakreform [2010, Фитнес, DVDRip] (Видеоурок)


Статистика раздачи [Обновить пиров]
Размер:  1.37 GB   |    Зарегистрирован:  11 месяцев 27 дней   |    Скачан:  0 раз

Полного источника не было: Никогда

Личеров:  1  [  0 KB/s  ]   Подробная статистика пиров
 
   
 
 
 

[Цитировать]

Рубинт Река "Реформа фигуры" / Rubint Reka Alakreform
Страна: Венгрия
Тематика: Фитнес
Тип раздаваемого материала: Видеоурок
Продолжительность: 1:36:01
Год выпуска: 2010
Язык: венгерский
Перевод: Отсутствует
Язык субтитров: нет
Описание:
Az Alakreform DVD dupla lemezes, EXTRA kiadás, hiszen tartalmaz:
1. DVD tartalmaz: - 90 perces, koplett Alakreform órát, melyet a Hegedűs Gyula utcai, 200 fős órán vettünk fel. Éppen ezért amikor a televízió előtt tornázol, úgy érzed majd, hogy részese vagy annak a lelkes, vidám, optimista tömegnek, akik minden kedden és csütörtökön este velem tornáznak.
Доп. информация: Первая часть диска Alakreform 2010. Рубинт проводит групповые занятия в спортивном зале. Как всегда с ней ее диджей, отличная музыка и энергичная тренировка.
Качество: DVDRip
Формат: AVI
Видео кодек: XviD
Аудио кодек: MPEG-4 Visual
Видео: 624x352, 25 fps, 1840 kbps avg, 0.335 bit/pixel
Аудио: AC-3, 48 kHz, 2ch, 192 kbps

скрытый текст

Общее
Полное имя : C:\Documents and Settings\Admin\Рабочий стол\rubint reka 1 alakform 2010\Rubint Reka.2010.Alakreform.1.DVDRip.avi
Формат : AVI
Формат/Информация : Audio Video Interleave
Размер файла : 1,37 Гбайт
Продолжительность : 1 ч. 36 м.
Общий поток : 2039 Кбит/сек
Программа кодирования : VirtualDubMod 1.5.4.1 (build 2178/release)
Библиотека кодирования : VirtualDubMod build 2178/release
Видео
Идентификатор : 0
Формат : MPEG-4 Visual
Профиль формата : Advanced Simple@L5
Параметр BVOP формата : 1
Параметр QPel формата : Нет
Параметр GMC формата : Без точки перехода
Параметр матрицы формата : Выборочная
Идентификатор кодека : XVID
Идентификатор кодека/Подсказка : XviD
Продолжительность : 1 ч. 36 м.
Битрейт : 1840 Кбит/сек
Ширина : 624 пикселя
Высота : 352 пикселя
Соотношение сторон : 16:9
Частота кадров : 25,000 кадров/сек
Цветовое пространство : YUV
Субдискретизация насыщенности : 4:2:0
Битовая глубина : 8 бит
Тип развёртки : Прогрессивная
Метод сжатия : С потерями
Бит/(Пиксели*Кадры) : 0.335
Размер потока : 1,23 Гбайт (90%)
Библиотека кодирования : XviD 1.2.1 (UTC 2008-12-04)
Аудио
Идентификатор : 1
Формат : AC-3
Формат/Информация : Audio Coding 3
Расширение режима : CM (complete main)
Идентификатор кодека : 2000
Продолжительность : 1 ч. 36 м.
Вид битрейта : Постоянный
Битрейт : 192 Кбит/сек
Каналы : 2 канала
Расположение каналов : Front: L R
Частота : 48,0 КГц
Битовая глубина : 16 бит
Метод сжатия : С потерями
Задержка видео : 96 мс.
Размер потока : 132 Мбайт (9%)
Выравнивание : Разделение по промежуткам
Продолжительность промежутка : 96 мс. (2,40 видеокадра)
Время предзагрузки промежутка : 96 мс.

Скриншоты

[teatrix.ru].t14357.torrent 
Торрент: Зарегистрирован [ 2016-01-24 09:15 ] · 4BEE13FD7A8DF8B5395A268CFC94004586EDE8A9

Скачать .torrent

Скачать

14 KB

Статус: проверено
Скачан: 0 раз
Размер: 1.37 GB
terms.php



Быстрый ответ

Имя:

      
Для отправки сообщений необходимо включить JavaScript
Показать сообщения:    

Текущее время: 20-Янв 14:58

Часовой пояс: UTC + 3


Вы можете начинать темы
Вы можете отвечать на сообщения
Вы не можете редактировать свои сообщения
Вы не можете удалять свои сообщения
Вы не можете голосовать в опросах
Вы не можете прикреплять файлы к сообщениям
Вы можете скачивать файлы