III российская Конвенция Body & Mind [2005, конвенция, DVDRip, RUS] (Видеоуроки)


Статистика раздачи [Обновить пиров]
Размер:  1.26 GB   |    Зарегистрирован:  10 месяцев 11 дней   |    Скачан:  0 раз

Полного источника не было: Никогда

 
   
 
 
 

[Цитировать]

II российская Конвенция Body&Mind
Москва, 12-13.11. 2005
Концепция “Body & Mind” стремительно ворвалась в нашу жизнь. И многие из нас уже не мыслят себя вне этой культуры...
Год выпуска: 2004
Страна: Россия
Жанр: фитнес для инструкторов
Продолжительность: Указана отдельно
Язык: Русский-Описание: 12 – 13 ноября 2005 г. в Москве состоялась III Международная Конвенция «BODY & MIND». В данном релизе представлены уроки 4-х презентеров:
-Гребенькова Вера - Reebok Flexible Strength - 28:30
Мастер-тренер TRX, Мастер-тренер групповых программ сети клубов Reebok-Савосина Леля - Wellness for Fun - 25:57
Мастер-тренер университета Reebok, персональный тренер, врач, президент Wellness Company WELLCOM
Совершенно удивительный урок, элементы которого я и сейчас использую в работе! Считаю одним из базовых уроков функционалки с медболом.-Нула Кумбс (Nuala Coombs) - Pilates Chair - 23:02
Фундатор Pilates Institute, London, Pilates Consultant. Nuala has over 25 years experience in the fitness and Pilates industries. As one of the founding directors of the Pilates Institute UK she has been actively involved in the development of Pilates education and accreditation in the UK. The past 10 years have seen her present at international conventions and train 1000's of students in the Pilates technique worldwide. Her book Pilates and Golf was published in 2005 and is available on her website. Nuala organises Pilates getaway breaks in St Tropez for Pilates teachers and enthusiasts and is sought after by teachers for career development and business guidance.-Рыкова Екатерина - Суставная гимнастика - 19:57
Консультант виртуального фитнес клуба «Галина», инструктор фитнес-центра Atom Heart / Москва, автор видеоурока "Калланетик - пластическая гимнастика" (2008г.)-Сперва все качались в тренажерке до потери памяти. Потом увлекались восточными практиками, затем начали активно танцевать. Сегодня в числе фитнес-фаворитов направление Body&Mind.
Развитие фитнес-индустрии сопоставимо с развитием человеческой культуры и искусства. Какова извечная проблема творчества? Форма или содержание. А фитнеса? Почти такая же: на первом месте здоровье, а уже только на втором внешний вид. А еще в искусстве всегда остро стоит вопрос поиска новых решений для выражения известных истин. То же самое и в фитнесе: уже никто не хочет тратить силы, просто тягая железо, все стремятся к тому, чтобы тренировки помимо физических нагрузок и душевное равновесие приносили. И именно поэтому все популярнее становится направление Body&Mind (в переводе с англ. «тело и разум»). Базируется оно на трех китах фитнеса: пилатесе, йоге и функциональном тренинге. Чем примечателен каждый из них? Ответ на этот вопрос и на многие другие, связанные с Mind & Body ежегодно затрагивают на конвенциях "Мудрого Тела"...-Качество: DVDRip
Формат: AVI 1.0 (VFW 1.1)
Видео кодек: XviD build 50
Аудио кодек: MPEG Layer 3
Видео: XviD, 640 x 480, 4/3, 1 885 Kbps, 25.000 fps, 0.245 b/px
Аудио: MPEG-1 Audio layer 3, 128 Kbps, CBR, 48.0 KHz, 2 ch.

Скриншоты видео

-Нула Кумбс (Nuala Coombs) - Pilates Chair - 23:02
-Рыкова Екатерина - Суставная гимнастика - 19:57
-Гребенькова Вера - Reebok Flexible Strength - 28:30
-Савосина Леля - Wellness for Fun - 25:57

Отчеты MIMediaInfo DVDRip

Complete name                    : Конвенция BODY & MIND 12-13 ноября 2005\BODY & MIND_01 - Nuala Coombs Pilates Chair.avi
Format                           : AVI
Format/Info                      : Audio Video Interleave
File size                        : 339 MiB
Duration                         : 23mn 2s
Overall bit rate                 : 2 060 Kbps
Writing application              : VirtualDubMod 1.5.10.2 (build 2540/release)
Writing library                  : VirtualDubMod build 2540/release
Video
ID                               : 0
Format                           : MPEG-4 Visual
Format profile                   : Advanced Simple@L5
Format settings, BVOP            : Yes
Format settings, QPel            : No
Format settings, GMC             : No warppoints
Format settings, Matrix          : Custom
Codec ID                         : XVID
Codec ID/Hint                    : XviD
Duration                         : 23mn 2s
Bit rate                         : 1 922 Kbps
Width                            : 640 pixels
Height                           : 480 pixels
Display aspect ratio             : 4:3
Frame rate                       : 25.000 fps
Color space                      : YUV
Chroma subsampling               : 4:2:0
Bit depth                        : 8 bits
Scan type                        : Progressive
Bits/(Pixel*Frame)               : 0.250
Stream size                      : 317 MiB (93%)
Writing library                  : XviD 1.2.1 (UTC 2008-12-04)
Audio
ID                               : 1
Format                           : MPEG Audio
Format version                   : Version 1
Format profile                   : Layer 3
Mode                             : Joint stereo
Mode extension                   : MS Stereo
Codec ID                         : 55
Codec ID/Hint                    : MP3
Duration                         : 23mn 2s
Bit rate mode                    : Constant
Bit rate                         : 128 Kbps
Channel(s)                       : 2 channels
Sampling rate                    : 48.0 KHz
Stream size                      : 21.1 MiB (6%)
Alignment                        : Split accross interleaves
Interleave, duration             : 40 ms (1.00 video frame)
Interleave, preload duration     : 500 ms

MediaInfo DVD

Complete name                    : Конвенция BODY & MIND 12-13 ноября 2005\VIDEO_TS\VTS_02_1.VOB
Format                           : MPEG-PS
File size                        : 1 024 MiB
Duration                         : 23mn 3s
Overall bit rate                 : 6 210 Kbps
Video
ID                               : 224 (0xE0)
Format                           : MPEG Video
Format version                   : Version 2
Format profile                   : Main@Main
Format settings, BVOP            : Yes
Format settings, Matrix          : Default
Format settings, GOP             : M=2, N=6
Duration                         : 23mn 3s
Bit rate mode                    : Variable
Bit rate                         : 5 702 Kbps
Nominal bit rate                 : 9 200 Kbps
Width                            : 720 pixels
Height                           : 576 pixels
Display aspect ratio             : 4:3
Frame rate                       : 25.000 fps
Standard                         : PAL
Color space                      : YUV
Chroma subsampling               : 4:2:0
Bit depth                        : 8 bits
Scan type                        : Interlaced
Scan order                       : Top Field First
Bits/(Pixel*Frame)               : 0.550
Stream size                      : 940 MiB (92%)
Audio
ID                               : 128 (0x80)
Format                           : AC-3
Format/Info                      : Audio Coding 3
Mode extension                   : CM (complete main)
Duration                         : 23mn 3s
Bit rate mode                    : Constant
Bit rate                         : 384 Kbps
Channel(s)                       : 2 channels
Channel positions                : Front: L R
Sampling rate                    : 48.0 KHz
Bit depth                        : 16 bits
Stream size                      : 63.3 MiB (6%)
Menu
[teatrix.ru].t14385.torrent 
Торрент: Зарегистрирован [ 2016-01-24 09:15 ] · B36F57A7A635A572AA9259F72E5B35D3AB17BDFE

Скачать .torrent

Скачать

13 KB

Статус: проверено
Скачан: 0 раз
Размер: 1.26 GB
terms.php



Быстрый ответ

Имя:

      
Для отправки сообщений необходимо включить JavaScript
Показать сообщения:    

Текущее время: 04-Дек 19:21

Часовой пояс: UTC + 3


Вы можете начинать темы
Вы можете отвечать на сообщения
Вы не можете редактировать свои сообщения
Вы не можете удалять свои сообщения
Вы не можете голосовать в опросах
Вы не можете прикреплять файлы к сообщениям
Вы можете скачивать файлы