Умберто Джордано - Андре Шенье (Йонас Кауфманн) / Umberto Giordano - Andrea Chenier (Jonas Kaufmann, Eva Westbroek, Zeljko Lucic) (Antonio Pappano / David McVicar) [2015, Opera, HDTVRip-AVC 720p] Sub [Русские][Multisubitles] (bonus • Elena-Rybka)


 

[Цитировать]

Королевский театр Ковент-Гарден (сезон 2014-15) представляет
УМБЕРТО ДЖОРДАНО
28 августа (August 28,) 1867 — 12 ноября (November 12,) 1948
Андрэ Шенье · Andrea Chénier
«Même Platon a banni les poètes de sa République.»
Robespierre
РЕЖИССЁР ДЭВИД МакВИКАР David McVicar
ПЕРЕВОД Профессиональный
Продолжительность: 125 min.
Язык: Итальянский
Субтитры/Subtitles: РУССКИЕ,
Eng, Ger, Fre, Dut, Ita, Esp, Swe, Por, Jap.
•••
Качество видео: HDTVRip-AVC
Исходник [Спасибо akacha]
Формат/Контейнер: MKV
Видео поток: H.264, 1280x720, Variable, 25,000 fps.
Аудио поток: Italian, AC3 448 kbps, 48,0 KHz, 16 bit, 6 ch original
АНДРЭ ШЕНЬЕ ЙОНАС КАУФМАНН · МАГДАЛИНА ЕВА-МАРИЯ ВЕСТБРУК
ЖЕРАР ЖЕЛЬКО ЛУЧИЧ · БЕРСИ ДЕНИС ГРЕЙВС
РОШЕ РОЛАНД ВУД
ХОР и ОРКЕСТР театра Ковент-Гарден
ДИРИЖЁР АНТОНИО ПАППАНО Antonio Pappano

-

MediaInfoPart1


-

x264.log


avs [info]: 1280x720p 1:1 @ 25/1 fps (cfr)
x264 [info]: using SAR=1/1
x264 [info]: using cpu capabilities: MMX2 SSE2Fast LZCNT
x264 [info]: profile High, level 4.1
x264 [info]: frame I:302 Avg QP:17.49 size:131001
x264 [info]: frame P:20508 Avg QP:20.26 size: 33476
x264 [info]: frame B:26062 Avg QP:22.84 size: 7542
x264 [info]: consecutive B-frames: 6.9% 47.9% 26.6% 18.6%
x264 [info]: mb I I16..4: 4.3% 66.7% 28.9%
x264 [info]: mb P I16..4: 0.4% 3.6% 1.1% P16..4: 45.2% 22.9% 14.8% 0.0% 0.0% skip:12.0%
x264 [info]: mb B I16..4: 0.0% 0.2% 0.1% B16..8: 43.2% 5.5% 1.5% direct: 2.3% skip:47.2% L0:37.8% L1:51.7% BI:10.5%
x264 [info]: 8x8 transform intra:69.8% inter:70.2%
x264 [info]: coded y,uvDC,uvAC intra: 83.8% 84.1% 55.7% inter: 26.4% 26.8% 2.6%
x264 [info]: i16 v,h,dc,p: 43% 11% 13% 33%
x264 [info]: i8 v,h,dc,ddl,ddr,vr,hd,vl,hu: 25% 11% 17% 5% 8% 11% 6% 10% 7%
x264 [info]: i4 v,h,dc,ddl,ddr,vr,hd,vl,hu: 26% 12% 11% 6% 10% 12% 7% 10% 6%
x264 [info]: i8c dc,h,v,p: 48% 15% 28% 9%
x264 [info]: Weighted P-Frames: Y:1.3% UV:0.3%
x264 [info]: ref P L0: 59.0% 14.0% 18.9% 8.0% 0.1%
x264 [info]: ref B L0: 78.1% 19.4% 2.5%
x264 [info]: ref B L1: 93.6% 6.4%
x264 [info]: kb/s:3936.86
encoded 46872 frames, 13.86 fps, 3936.86 kb/s
-
General
Unique ID : 214403918063462371171860549064449416154 (0xA14CB14E2EFFF595A8BDFA8829F95BDA)
Complete name : Andrea Chenier (Kaufmann) ROH, 2015\Andrea Chenier Pt1.mkv
Format : Matroska
Format version : Version 4 / Version 2
File size : 982 MiB
Duration : 31mn 14s
Overall bit rate : 4 394 Kbps
Encoded date : UTC 2016-01-12 11:39:59
Writing application : mkvmerge v8.3.0 ('Over the Horizon') 32bit
Writing library : libebml v1.3.1 + libmatroska v1.4.2
Video
ID : 1
Format : AVC
Format/Info : Advanced Video Codec
Format profile : High@L4.1
Format settings, CABAC : Yes
Format settings, ReFrames : 4 frames
Codec ID : V_MPEG4/ISO/AVC
Duration : 31mn 14s
Bit rate : 3 859 Kbps
Width : 1 280 pixels
Height : 720 pixels
Display aspect ratio : 16:9
Frame rate mode : Constant
Frame rate : 25.000 fps
Color space : YUV
Chroma subsampling : 4:2:0
Bit depth : 8 bits
Scan type : Progressive
Bits/(Pixel*Frame) : 0.167
Stream size : 863 MiB (88%)
Writing library : x264 core 148 r2638 7599210
Encoding settings : cabac=1 / ref=3 / deblock=1:0:0 / analyse=0x3:0x113 / me=hex / subme=7 / psy=1 / psy_rd=1.00:0.00 / mixed_ref=1 / me_range=16 / chroma_me=1 / trellis=1 / 8x8dct=1 / cqm=0 / deadzone=21,11 / fast_pskip=1 / chroma_qp_offset=-2 / threads=4 / lookahead_threads=1 / sliced_threads=0 / nr=0 / decimate=1 / interlaced=0 / bluray_compat=0 / constrained_intra=0 / bframes=3 / b_pyramid=2 / b_adapt=1 / b_bias=0 / direct=1 / weightb=1 / open_gop=0 / weightp=2 / keyint=250 / keyint_min=25 / scenecut=40 / intra_refresh=0 / rc_lookahead=40 / rc=crf / mbtree=1 / crf=19.6 / qcomp=0.60 / qpmin=0 / qpmax=69 / qpstep=4 / vbv_maxrate=62500 / vbv_bufsize=78125 / crf_max=0.0 / nal_hrd=none / filler=0 / ip_ratio=1.40 / aq=1:1.00
Default : Yes
Forced : No
Audio
ID : 2
Format : AC-3
Format/Info : Audio Coding 3
Mode extension : CM (complete main)
Format settings, Endianness : Big
Codec ID : A_AC3
Duration : 31mn 14s
Bit rate mode : Constant
Bit rate : 448 Kbps
Channel(s) : 6 channels
Channel positions : Front: L C R, Side: L R, LFE
Sampling rate : 48.0 KHz
Compression mode : Lossy
Stream size : 100 MiB (10%)
Language : Italian
Default : Yes
Forced : No
Text #1
ID : 3
Format : ASS
Codec ID : S_TEXT/ASS
Codec ID/Info : Advanced Sub Station Alpha
Compression mode : Lossless
Language : Russian
Default : Yes
Forced : Yes
Text #2
ID : 4
Format : UTF-8
Codec ID : S_TEXT/UTF8
Codec ID/Info : UTF-8 Plain Text
Language : Dutch
Default : No
Forced : No
Text #3
ID : 5
Format : UTF-8
Codec ID : S_TEXT/UTF8
Codec ID/Info : UTF-8 Plain Text
Language : English
Default : No
Forced : No
Text #4
ID : 6
Format : UTF-8
Codec ID : S_TEXT/UTF8
Codec ID/Info : UTF-8 Plain Text
Language : French
Default : No
Forced : No
Text #5
ID : 7
Format : UTF-8
Codec ID : S_TEXT/UTF8
Codec ID/Info : UTF-8 Plain Text
Language : German
Default : No
Forced : No
Text #6
ID : 8
Format : UTF-8
Codec ID : S_TEXT/UTF8
Codec ID/Info : UTF-8 Plain Text
Language : Italian
Default : No
Forced : No
Text #7
ID : 9
Format : UTF-8
Codec ID : S_TEXT/UTF8
Codec ID/Info : UTF-8 Plain Text
Language : Portuguese
Default : No
Forced : No
Text #8
ID : 10
Format : UTF-8
Codec ID : S_TEXT/UTF8
Codec ID/Info : UTF-8 Plain Text
Language : Spanish
Default : No
Forced : No
Text #9
ID : 11
Format : UTF-8
Codec ID : S_TEXT/UTF8
Codec ID/Info : UTF-8 Plain Text
Language : Swedish
Default : No
Forced : No
Text #10
ID : 12
Format : VobSub
Muxing mode : zlib
Codec ID : S_VOBSUB
Codec ID/Info : Picture based subtitle format used on DVDs
Language : Japanese
Default : No
Forced : No

Part2


-

x264.log


avs [info]: 1280x720p 1:1 @ 25/1 fps (cfr)
x264 [info]: using SAR=1/1
x264 [info]: using cpu capabilities: MMX2 SSE2Fast LZCNT
x264 [info]: profile High, level 4.1
x264 [info]: frame I:256 Avg QP:15.97 size:104681
x264 [info]: frame P:17586 Avg QP:18.20 size: 32006
x264 [info]: frame B:23649 Avg QP:20.19 size: 10165
x264 [info]: consecutive B-frames: 8.5% 38.4% 23.8% 29.2%
x264 [info]: mb I I16..4: 3.3% 74.1% 22.6%
x264 [info]: mb P I16..4: 0.4% 4.0% 1.1% P16..4: 46.4% 26.5% 15.2% 0.0% 0.0% skip: 6.5%
x264 [info]: mb B I16..4: 0.0% 0.3% 0.1% B16..8: 46.2% 8.7% 1.8% direct: 3.5% skip:39.4% L0:41.2% L1:48.7% BI:10.0%
x264 [info]: 8x8 transform intra:72.9% inter:68.8%
x264 [info]: direct mvs spatial:92.7% temporal:7.3%
x264 [info]: coded y,uvDC,uvAC intra: 82.6% 79.6% 52.1% inter: 33.1% 25.0% 2.3%
x264 [info]: i16 v,h,dc,p: 33% 16% 15% 35%
x264 [info]: i8 v,h,dc,ddl,ddr,vr,hd,vl,hu: 24% 11% 22% 5% 7% 9% 6% 9% 6%
x264 [info]: i4 v,h,dc,ddl,ddr,vr,hd,vl,hu: 26% 14% 13% 6% 9% 11% 7% 8% 6%
x264 [info]: i8c dc,h,v,p: 51% 16% 26% 7%
x264 [info]: Weighted P-Frames: Y:1.2% UV:0.1%
x264 [info]: ref P L0: 54.6% 11.3% 23.6% 10.4% 0.1%
x264 [info]: ref B L0: 71.4% 25.2% 3.4%
x264 [info]: ref B L1: 92.1% 7.9%
x264 [info]: kb/s:4001.02
encoded 41491 frames, 12.54 fps, 4001.02 kb/s
-
General
Unique ID : 195927045838133196781794706731137230486 (0x93662D2BCB5C2635A042AE8B2D9FE696)
Complete name : Andrea Chenier (Kaufmann) ROH, 2015\Andrea Chenier Pt2.mkv
Format : Matroska
Format version : Version 4 / Version 2
File size : 882 MiB
Duration : 27mn 39s
Overall bit rate : 4 460 Kbps
Encoded date : UTC 2016-01-12 11:35:19
Writing application : mkvmerge v8.3.0 ('Over the Horizon') 32bit
Writing library : libebml v1.3.1 + libmatroska v1.4.2
Video
ID : 1
Format : AVC
Format/Info : Advanced Video Codec
Format profile : High@L4.1
Format settings, CABAC : Yes
Format settings, ReFrames : 4 frames
Codec ID : V_MPEG4/ISO/AVC
Duration : 27mn 39s
Bit rate : 4 000 Kbps
Width : 1 280 pixels
Height : 720 pixels
Display aspect ratio : 16:9
Frame rate mode : Constant
Frame rate : 25.000 fps
Color space : YUV
Chroma subsampling : 4:2:0
Bit depth : 8 bits
Scan type : Progressive
Bits/(Pixel*Frame) : 0.174
Stream size : 776 MiB (88%)
Writing library : x264 core 148 r2638 7599210
Encoding settings : cabac=1 / ref=3 / deblock=1:0:0 / analyse=0x3:0x113 / me=hex / subme=7 / psy=1 / psy_rd=1.00:0.00 / mixed_ref=1 / me_range=16 / chroma_me=1 / trellis=1 / 8x8dct=1 / cqm=0 / deadzone=21,11 / fast_pskip=1 / chroma_qp_offset=-2 / threads=4 / lookahead_threads=1 / sliced_threads=0 / nr=0 / decimate=1 / interlaced=0 / bluray_compat=0 / constrained_intra=0 / bframes=3 / b_pyramid=2 / b_adapt=1 / b_bias=0 / direct=3 / weightb=1 / open_gop=0 / weightp=2 / keyint=250 / keyint_min=25 / scenecut=40 / intra_refresh=0 / rc_lookahead=40 / rc=2pass / mbtree=1 / bitrate=4000 / ratetol=1.0 / qcomp=0.60 / qpmin=0 / qpmax=69 / qpstep=4 / cplxblur=20.0 / qblur=0.5 / vbv_maxrate=62500 / vbv_bufsize=78125 / nal_hrd=none / filler=0 / ip_ratio=1.40 / aq=1:1.00
Default : Yes
Forced : No
Audio
ID : 2
Format : AC-3
Format/Info : Audio Coding 3
Mode extension : CM (complete main)
Format settings, Endianness : Big
Codec ID : A_AC3
Duration : 27mn 39s
Bit rate mode : Constant
Bit rate : 448 Kbps
Channel(s) : 6 channels
Channel positions : Front: L C R, Side: L R, LFE
Sampling rate : 48.0 KHz
Compression mode : Lossy
Stream size : 88.6 MiB (10%)
Language : Italian
Default : Yes
Forced : No
Text #1
ID : 3
Format : ASS
Codec ID : S_TEXT/ASS
Codec ID/Info : Advanced Sub Station Alpha
Compression mode : Lossless
Language : Russian
Default : Yes
Forced : Yes
Text #2
ID : 4
Format : UTF-8
Codec ID : S_TEXT/UTF8
Codec ID/Info : UTF-8 Plain Text
Language : Dutch
Default : No
Forced : No
Text #3
ID : 5
Format : UTF-8
Codec ID : S_TEXT/UTF8
Codec ID/Info : UTF-8 Plain Text
Language : English
Default : No
Forced : No
Text #4
ID : 6
Format : UTF-8
Codec ID : S_TEXT/UTF8
Codec ID/Info : UTF-8 Plain Text
Language : French
Default : No
Forced : No
Text #5
ID : 7
Format : UTF-8
Codec ID : S_TEXT/UTF8
Codec ID/Info : UTF-8 Plain Text
Language : German
Default : No
Forced : No
Text #6
ID : 8
Format : UTF-8
Codec ID : S_TEXT/UTF8
Codec ID/Info : UTF-8 Plain Text
Language : Italian
Default : No
Forced : No
Text #7
ID : 9
Format : UTF-8
Codec ID : S_TEXT/UTF8
Codec ID/Info : UTF-8 Plain Text
Language : Portuguese
Default : No
Forced : No
Text #8
ID : 10
Format : UTF-8
Codec ID : S_TEXT/UTF8
Codec ID/Info : UTF-8 Plain Text
Language : Spanish
Default : No
Forced : No
Text #9
ID : 11
Format : UTF-8
Codec ID : S_TEXT/UTF8
Codec ID/Info : UTF-8 Plain Text
Language : Swedish
Default : No
Forced : No
Text #10
ID : 12
Format : VobSub
Muxing mode : zlib
Codec ID : S_VOBSUB
Codec ID/Info : Picture based subtitle format used on DVDs
Language : Japanese
Default : No
Forced : No

Part3


-

x264.log


avs [info]: 1280x720p 1:1 @ 25/1 fps (cfr)
x264 [info]: using SAR=1/1
x264 [info]: using cpu capabilities: MMX2 SSE2Fast LZCNT
x264 [info]: profile High, level 4.1
x264 [info]: frame I:346 Avg QP:17.59 size:107892
x264 [info]: frame P:25052 Avg QP:20.25 size: 27173
x264 [info]: frame B:36102 Avg QP:22.67 size: 6784
x264 [info]: consecutive B-frames: 7.1% 33.3% 32.2% 27.4%
x264 [info]: mb I I16..4: 4.5% 67.6% 27.9%
x264 [info]: mb P I16..4: 0.3% 2.6% 0.7% P16..4: 47.6% 22.6% 13.8% 0.0% 0.0% skip:12.4%
x264 [info]: mb B I16..4: 0.0% 0.1% 0.0% B16..8: 47.1% 5.3% 1.1% direct: 1.7% skip:44.7% L0:40.1% L1:52.1% BI: 7.8%
x264 [info]: 8x8 transform intra:70.8% inter:73.6%
x264 [info]: coded y,uvDC,uvAC intra: 82.3% 78.6% 46.9% inter: 24.8% 23.7% 1.3%
x264 [info]: i16 v,h,dc,p: 35% 16% 12% 36%
x264 [info]: i8 v,h,dc,ddl,ddr,vr,hd,vl,hu: 25% 12% 18% 6% 8% 10% 6% 10% 7%
x264 [info]: i4 v,h,dc,ddl,ddr,vr,hd,vl,hu: 26% 14% 12% 6% 9% 11% 7% 9% 6%
x264 [info]: i8c dc,h,v,p: 51% 16% 26% 7%
x264 [info]: Weighted P-Frames: Y:0.8% UV:0.2%
x264 [info]: ref P L0: 56.2% 12.9% 21.9% 8.9% 0.1%
x264 [info]: ref B L0: 75.5% 21.4% 3.1%
x264 [info]: ref B L1: 92.1% 7.9%
x264 [info]: kb/s:3131.62
encoded 61500 frames, 11.62 fps, 3131.62 kb/s
-
General
Unique ID : 231772609997780137076160194659920699968 (0xAE5DC7EEDA41C2919776397FF0CCE240)
Complete name : Andrea Chenier (Kaufmann) ROH, 2015\Andrea Chenier Pt3.mkv
Format : Matroska
Format version : Version 4 / Version 2
File size : 1.03 GiB
Duration : 41mn 0s
Overall bit rate : 3 590 Kbps
Encoded date : UTC 2016-01-12 17:51:37
Writing application : mkvmerge v8.3.0 ('Over the Horizon') 32bit
Writing library : libebml v1.3.1 + libmatroska v1.4.2
Video
ID : 1
Format : AVC
Format/Info : Advanced Video Codec
Format profile : High@L4.1
Format settings, CABAC : Yes
Format settings, ReFrames : 4 frames
Codec ID : V_MPEG4/ISO/AVC
Duration : 41mn 0s
Bit rate : 3 071 Kbps
Width : 1 280 pixels
Height : 720 pixels
Display aspect ratio : 16:9
Frame rate mode : Constant
Frame rate : 25.000 fps
Color space : YUV
Chroma subsampling : 4:2:0
Bit depth : 8 bits
Scan type : Progressive
Bits/(Pixel*Frame) : 0.133
Stream size : 900 MiB (86%)
Writing library : x264 core 148 r2638 7599210
Encoding settings : cabac=1 / ref=3 / deblock=1:0:0 / analyse=0x3:0x113 / me=hex / subme=7 / psy=1 / psy_rd=1.00:0.00 / mixed_ref=1 / me_range=16 / chroma_me=1 / trellis=1 / 8x8dct=1 / cqm=0 / deadzone=21,11 / fast_pskip=1 / chroma_qp_offset=-2 / threads=4 / lookahead_threads=1 / sliced_threads=0 / nr=0 / decimate=1 / interlaced=0 / bluray_compat=0 / constrained_intra=0 / bframes=3 / b_pyramid=2 / b_adapt=1 / b_bias=0 / direct=1 / weightb=1 / open_gop=0 / weightp=2 / keyint=250 / keyint_min=25 / scenecut=40 / intra_refresh=0 / rc_lookahead=40 / rc=crf / mbtree=1 / crf=19.7 / qcomp=0.60 / qpmin=0 / qpmax=69 / qpstep=4 / vbv_maxrate=62500 / vbv_bufsize=78125 / crf_max=0.0 / nal_hrd=none / filler=0 / ip_ratio=1.40 / aq=1:1.00
Default : Yes
Forced : No
Audio
ID : 2
Format : AC-3
Format/Info : Audio Coding 3
Mode extension : CM (complete main)
Format settings, Endianness : Big
Codec ID : A_AC3
Duration : 41mn 0s
Bit rate mode : Constant
Bit rate : 448 Kbps
Channel(s) : 6 channels
Channel positions : Front: L C R, Side: L R, LFE
Sampling rate : 48.0 KHz
Compression mode : Lossy
Stream size : 131 MiB (12%)
Language : Italian
Default : Yes
Forced : No
Text #1
ID : 3
Format : ASS
Codec ID : S_TEXT/ASS
Codec ID/Info : Advanced Sub Station Alpha
Compression mode : Lossless
Language : Russian
Default : Yes
Forced : Yes
Text #2
ID : 4
Format : UTF-8
Codec ID : S_TEXT/UTF8
Codec ID/Info : UTF-8 Plain Text
Language : Dutch
Default : No
Forced : No
Text #3
ID : 5
Format : UTF-8
Codec ID : S_TEXT/UTF8
Codec ID/Info : UTF-8 Plain Text
Language : English
Default : No
Forced : No
Text #4
ID : 6
Format : UTF-8
Codec ID : S_TEXT/UTF8
Codec ID/Info : UTF-8 Plain Text
Language : French
Default : No
Forced : No
Text #5
ID : 7
Format : UTF-8
Codec ID : S_TEXT/UTF8
Codec ID/Info : UTF-8 Plain Text
Language : German
Default : No
Forced : No
Text #6
ID : 8
Format : UTF-8
Codec ID : S_TEXT/UTF8
Codec ID/Info : UTF-8 Plain Text
Language : Italian
Default : No
Forced : No
Text #7
ID : 9
Format : UTF-8
Codec ID : S_TEXT/UTF8
Codec ID/Info : UTF-8 Plain Text
Language : Portuguese
Default : No
Forced : No
Text #8
ID : 10
Format : UTF-8
Codec ID : S_TEXT/UTF8
Codec ID/Info : UTF-8 Plain Text
Language : Spanish
Default : No
Forced : No
Text #9
ID : 11
Format : UTF-8
Codec ID : S_TEXT/UTF8
Codec ID/Info : UTF-8 Plain Text
Language : Swedish
Default : No
Forced : No
Text #10
ID : 12
Format : VobSub
Muxing mode : zlib
Codec ID : S_VOBSUB
Codec ID/Info : Picture based subtitle format used on DVDs
Language : Japanese
Default : No
Forced : No

Part4


-

x264.log


avs [info]: 1280x720p 1:1 @ 25/1 fps (cfr)
x264 [info]: using SAR=1/1
x264 [info]: using cpu capabilities: MMX2 SSE2Fast LZCNT
x264 [info]: profile High, level 4.1
x264 [info]: frame I:261 Avg QP:18.56 size: 62483
x264 [info]: frame P:17698 Avg QP:21.19 size: 9288
x264 [info]: frame B:20317 Avg QP:22.70 size: 2834
x264 [info]: consecutive B-frames: 16.8% 31.9% 16.0% 35.3%
x264 [info]: mb I I16..4: 10.2% 68.7% 21.1%
x264 [info]: mb P I16..4: 0.3% 1.6% 0.2% P16..4: 37.7% 7.3% 7.0% 0.0% 0.0% skip:45.9%
x264 [info]: mb B I16..4: 0.0% 0.1% 0.0% B16..8: 33.2% 1.3% 0.3% direct: 0.4% skip:64.6% L0:42.5% L1:54.9% BI: 2.6%
x264 [info]: 8x8 transform intra:71.9% inter:85.7%
x264 [info]: coded y,uvDC,uvAC intra: 62.5% 63.8% 32.0% inter: 10.3% 13.5% 0.4%
x264 [info]: i16 v,h,dc,p: 48% 15% 12% 25%
x264 [info]: i8 v,h,dc,ddl,ddr,vr,hd,vl,hu: 26% 10% 30% 4% 6% 8% 5% 7% 4%
x264 [info]: i4 v,h,dc,ddl,ddr,vr,hd,vl,hu: 33% 14% 13% 5% 8% 10% 6% 7% 4%
x264 [info]: i8c dc,h,v,p: 56% 14% 24% 5%
x264 [info]: Weighted P-Frames: Y:2.5% UV:0.5%
x264 [info]: ref P L0: 60.0% 9.7% 20.5% 9.6% 0.2%
x264 [info]: ref B L0: 72.2% 24.2% 3.6%
x264 [info]: ref B L1: 93.0% 7.0%
x264 [info]: kb/s:1245.04
encoded 38276 frames, 14.77 fps, 1245.04 kb/s
-
General
Unique ID : 208929217404285435788209464966093995896 (0x9D2E4DB9193D847BA6CBA004079BFF78)
Complete name : Andrea Chenier (Kaufmann) ROH, 2015\Andrea Chenier Pt4.mkv
Format : Matroska
Format version : Version 4 / Version 2
File size : 309 MiB
Duration : 25mn 31s
Overall bit rate : 1 695 Kbps
Encoded date : UTC 2016-01-12 18:47:48
Writing application : mkvmerge v8.3.0 ('Over the Horizon') 32bit
Writing library : libebml v1.3.1 + libmatroska v1.4.2
Video
ID : 1
Format : AVC
Format/Info : Advanced Video Codec
Format profile : High@L4.1
Format settings, CABAC : Yes
Format settings, ReFrames : 4 frames
Codec ID : V_MPEG4/ISO/AVC
Duration : 25mn 31s
Bit rate : 1 213 Kbps
Width : 1 280 pixels
Height : 720 pixels
Display aspect ratio : 16:9
Frame rate mode : Constant
Frame rate : 25.000 fps
Color space : YUV
Chroma subsampling : 4:2:0
Bit depth : 8 bits
Scan type : Progressive
Bits/(Pixel*Frame) : 0.053
Stream size : 221 MiB (72%)
Writing library : x264 core 148 r2638 7599210
Encoding settings : cabac=1 / ref=3 / deblock=1:0:0 / analyse=0x3:0x113 / me=hex / subme=7 / psy=1 / psy_rd=1.00:0.00 / mixed_ref=1 / me_range=16 / chroma_me=1 / trellis=1 / 8x8dct=1 / cqm=0 / deadzone=21,11 / fast_pskip=1 / chroma_qp_offset=-2 / threads=4 / lookahead_threads=1 / sliced_threads=0 / nr=0 / decimate=1 / interlaced=0 / bluray_compat=0 / constrained_intra=0 / bframes=3 / b_pyramid=2 / b_adapt=1 / b_bias=0 / direct=1 / weightb=1 / open_gop=0 / weightp=2 / keyint=250 / keyint_min=25 / scenecut=40 / intra_refresh=0 / rc_lookahead=40 / rc=crf / mbtree=1 / crf=21.7 / qcomp=0.60 / qpmin=0 / qpmax=69 / qpstep=4 / vbv_maxrate=62500 / vbv_bufsize=78125 / crf_max=0.0 / nal_hrd=none / filler=0 / ip_ratio=1.40 / aq=1:1.00
Default : Yes
Forced : No
Audio
ID : 2
Format : AC-3
Format/Info : Audio Coding 3
Mode extension : CM (complete main)
Format settings, Endianness : Big
Codec ID : A_AC3
Duration : 25mn 31s
Bit rate mode : Constant
Bit rate : 448 Kbps
Channel(s) : 6 channels
Channel positions : Front: L C R, Side: L R, LFE
Sampling rate : 48.0 KHz
Compression mode : Lossy
Stream size : 81.8 MiB (26%)
Language : Italian
Default : Yes
Forced : No
Text #1
ID : 3
Format : ASS
Codec ID : S_TEXT/ASS
Codec ID/Info : Advanced Sub Station Alpha
Compression mode : Lossless
Language : Russian
Default : Yes
Forced : Yes
Text #2
ID : 4
Format : UTF-8
Codec ID : S_TEXT/UTF8
Codec ID/Info : UTF-8 Plain Text
Language : Dutch
Default : No
Forced : No
Text #3
ID : 5
Format : UTF-8
Codec ID : S_TEXT/UTF8
Codec ID/Info : UTF-8 Plain Text
Language : English
Default : No
Forced : No
Text #4
ID : 6
Format : UTF-8
Codec ID : S_TEXT/UTF8
Codec ID/Info : UTF-8 Plain Text
Language : French
Default : No
Forced : No
Text #5
ID : 7
Format : UTF-8
Codec ID : S_TEXT/UTF8
Codec ID/Info : UTF-8 Plain Text
Language : German
Default : No
Forced : No
Text #6
ID : 8
Format : UTF-8
Codec ID : S_TEXT/UTF8
Codec ID/Info : UTF-8 Plain Text
Language : Italian
Default : No
Forced : No
Text #7
ID : 9
Format : UTF-8
Codec ID : S_TEXT/UTF8
Codec ID/Info : UTF-8 Plain Text
Language : Portuguese
Default : No
Forced : No
Text #8
ID : 10
Format : UTF-8
Codec ID : S_TEXT/UTF8
Codec ID/Info : UTF-8 Plain Text
Language : Spanish
Default : No
Forced : No
Text #9
ID : 11
Format : UTF-8
Codec ID : S_TEXT/UTF8
Codec ID/Info : UTF-8 Plain Text
Language : Swedish
Default : No
Forced : No

Доп. материалы

ПЕРЕВОД © Elena-Rybka
Продолжительность: 30 min.
Язык: Английский
Субтитры/Subtitles: РУССКИЕ,
Eng, Ger, Fre, Dut, Ita, Esp, Swe, Por, Jap.

Видео поток: H.264, 1280x720, Variable, 25,000 fps.
Аудио поток: Original, AC3 448 kbps, 48,0 KHz, 16 bit, 6 ch
-



Показать сообщения:    

Текущее время: 10-Дек 17:49

Часовой пояс: UTC + 3


Вы не можете начинать темы
Вы не можете отвечать на сообщения
Вы не можете редактировать свои сообщения
Вы не можете удалять свои сообщения
Вы не можете голосовать в опросах
Вы не можете прикреплять файлы к сообщениям
Вы не можете скачивать файлы