Спасибо, жизнь / Merci la vie (Бертран Блие / Bertrand Blier) [1991, Франция, трагикомедия абсурда, черный юмор, DVB] Original (Fre) + Sub (Rus, Eng, Fre, Deu)


Статистика раздачи [Обновить пиров]
Размер:  2.86 GB   |    Зарегистрирован:  10 месяцев 15 дней   |    Скачан:  1 раз

Полного источника не было: 9 месяцев 3 дня

Личеров:  6  [  0 KB/s  ]   Подробная статистика пиров
 
   
 
 
 

[Цитировать]

Спасибо, жизнь
Merci la vie- Страна: Франция
Жанр: трагикомедия абсурда, черный юмор
Год выпуска: 1991
Продолжительность: 01:53:27Перевод: Субтитры (русский перевод И.Рыбкиной, Éclair Media)
Cубтитры: русские, английские, французские, немецкие, нидерландские, румынские
Оригинальная аудиодорожка: французский
Режиссер: Бертран Блие / Bertrand Blier
В ролях: Шарлотта Генсбур / Charlotte Gainsbourg (Camille Pelleveau), Анук Гринбер / Anouk Grinberg (Joëlle), Мишель Блан / Michel Blanc (Raymond Pelleveau), Жан Карме / Jean Carmet (Raymond Pelleveau), Анни Жирардо / Annie Girardot (Evangéline Pelleveau), Жан-Луи Трентиньян / Jean-Louis Trintignant (SS Officer), Катрин Жакоб / Catherine Jacob (Evangéline Pelleveau), Жерар Депардье / Gérard Depardieu (Doctor Marc Antoine Worms), Тьери Фремон / Thierry Frémont (François), Франсуа Перро / François Perrot (Maurice, the Film Director), Дидье Бенюро / Didier Bénureau (2nd Film Director), Жак Буде / Jacques Boudet (Craven, the Depositer)
Описание: Оператор Филипп Руссло / Philippe Rousselot.
Поначалу "Спасибо, жизнь" воспринимается как «женский вариант» его знаменитой язвительной притчи "Вальсирующие". Юные девушки Камиль и Жоэль, придуриваясь сами и надувая встречных, вдоволь желают познать все прелести и пороки сегодняшней жизни, не думая об опасностях, которые могут не только поджидать за ближайшим углом, но и таиться в них в виде еще неизвестной болезни. А затем ернически поданные странствия девчонок в эпоху СПИДа сопоставляются по своему типично экзистенциальному переживанию «пограничной ситуации» и состоянию сартровской "тошноты" или "чумы" Камю с периодом фашистской оккупации в уже совершенно фарсовой, гиньольной манере. Впрочем, к этому моменту временные и причинно-следственные связи окончательно перепутываются — и выдуманная история похождений несостоявшихся невест меняется местами с тут же снимаемой (по-годаровски) "жизнью врасплох". Но в этой круговерти излюбленных мотивов картин об ангелах-шлюхах, мужчинах, теряющих мужские достоинства, обо всей дерьмовой жизни, почему-то доставляющей неизъяснимую радость, Бертран Блие впервые теряет чувство меры и виртуозность стиля. (С. Кудрявцев)
Доп. информация: Hot Bird (13.0°E) TV5MONDE Europe DVB-S
Награды: премия "Сезар" 1992 лучшему актеру второго плана (Jean Carmet) + 6 номинаций (лучший фильм, режиссер, сценарий, монтаж, актриса - Anouk Grinberg, актриса второго плана - Catherine Jacob).

Качество видео: DVB
Формат видео: TS
Видео: MPEG Video 2, 720x576@1024x576 (16:9), 25 fps, ~3239 kbps avg, 0.312 bit/pixel
Аудио: MPEG Audio 2, 2 ch, 48 kHz, 192 kbps - французский
Формат субтитров: PGS

MediaInfo

ОбщееИдентификатор : 1 (0x1)Полное имя : F:\My Torrents 3\[apreder]Merci_la_vie(1991)DVB.tsФормат : MPEG-TSРазмер файла : 2,86 ГбайтПродолжительность : 1 ч. 53 м.Режим общего битрейта : ПеременныйОбщий поток : 3611 Кбит/секМаксимальный общий битрейт : 35,5 Мбит/сек
ВидеоИдентификатор : 4113 (0x1011)Идентификатор меню : 1 (0x1)Формат : MPEG VideoВерсия формата : Version 2Профиль формата : Main@MainПараметр BVOP формата : ДаПараметр матрицы формата : ВыборочнаяПараметр GOP формата : VariableFormat_Settings_PictureStructure : FrameИдентификатор кодека : 2Продолжительность : 1 ч. 53 м.Вид битрейта : ПеременныйБитрейт : 3239 Кбит/секШирина : 720 пикселейВысота : 576 пикселейСоотношение сторон : 16:9Частота кадров : 25,000 кадров/секСтандарт вещания : PALЦветовое пространство : YUVСубдискретизация насыщенности : 4:2:0Битовая глубина : 8 битТип развёртки : ЧересстрочнаяПорядок развёртки : Верхнее поле первоеМетод сжатия : С потерямиБит/(Пиксели*Кадры) : 0.312Временной код первого кадра : 00:00:00:00Оригинал временного кода : Group of pictures headerРазмер потока : 2,57 Гбайт (90%)
АудиоИдентификатор : 4352 (0x1100)Идентификатор меню : 1 (0x1)Формат : MPEG AudioВерсия формата : Version 1Профиль формата : Layer 2Режим : Joint stereoРасширение режима : Intensity Stereo + MS StereoИдентификатор кодека : 4Продолжительность : 1 ч. 53 м.Вид битрейта : ПостоянныйБитрейт : 192 Кбит/секКаналы : 2 каналаЧастота : 48,0 КГцМетод сжатия : С потерямиРазмер потока : 156 Мбайт (5%)Язык : French
Текст #1Идентификатор : 4608 (0x1200)Идентификатор меню : 1 (0x1)Формат : PGSИдентификатор кодека : 144Продолжительность : 1 ч. 53 м.Задержка видео : 21 с.Язык : Russian
Текст #2Идентификатор : 4609 (0x1201)Идентификатор меню : 1 (0x1)Формат : PGSИдентификатор кодека : 144Продолжительность : 1 ч. 53 м.Задержка видео : 21 с.Язык : English
Текст #3Идентификатор : 4610 (0x1202)Идентификатор меню : 1 (0x1)Формат : PGSИдентификатор кодека : 144Продолжительность : 1 ч. 53 м.Задержка видео : 21 с.Язык : French
Текст #4Идентификатор : 4611 (0x1203)Идентификатор меню : 1 (0x1)Формат : PGSИдентификатор кодека : 144Продолжительность : 1 ч. 53 м.Задержка видео : 21 с.Язык : German
Текст #5Идентификатор : 4612 (0x1204)Идентификатор меню : 1 (0x1)Формат : PGSИдентификатор кодека : 144Продолжительность : 1 ч. 53 м.Задержка видео : 21 с.Язык : Dutch
Текст #6Идентификатор : 4613 (0x1205)Идентификатор меню : 1 (0x1)Формат : PGSИдентификатор кодека : 144Задержка видео : 21 с.Язык : Romanian

Скриншот c названием фильма

Скриншоты


Резервные скриншоты


[teatrix.ru].t14397.torrent 
Торрент: Зарегистрирован [ 2016-01-24 18:40 ] · A65942B61E9375574B4A7D712E3DE230CC2D6B22

Скачать .torrent

Скачать

15 KB

Статус: проверено
Скачан: 1 раз
Размер: 2.86 GB
terms.php



Быстрый ответ

Имя:

      
Для отправки сообщений необходимо включить JavaScript
Показать сообщения:    

Текущее время: 08-Дек 23:13

Часовой пояс: UTC + 3


Вы можете начинать темы
Вы можете отвечать на сообщения
Вы не можете редактировать свои сообщения
Вы не можете удалять свои сообщения
Вы не можете голосовать в опросах
Вы не можете прикреплять файлы к сообщениям
Вы можете скачивать файлы