Не верь глазам свом \\ Под западным взглядом / Leneged Einayim Ma'araviyot (Йосеф Пичхадзе / Joseph Pitchhadze) [1995, Израиль, драма, триллер, SATRip] + Sub Rus + Original Heb


Статистика раздачи [Обновить пиров]
Размер:  1.49 GB   |    Зарегистрирован:  10 месяцев 9 дней   |    Скачан:  0 раз

Полного источника не было: 4 месяца 17 дней

Личеров:  5  [  0 KB/s  ]   Подробная статистика пиров
 
   
 
 
 

[Цитировать]

Не верь глазам свом \ Под западным взглядом / Leneged Einayim Ma'araviyot
Страна: Израиль
Жанр: драма, триллер
Год выпуска: 1995
Продолжительность: 01:31:25
Перевод: Субтитры
Cубтитры: русские
Оригинальная аудиодорожка: иврит
Режиссер: Йосеф Пичхадзе / Joseph Pitchhadze
В ролях: Яэль Шехтер, Лиат Глик, Эзра Кафри, Кармель Бато
Описание: Гери, архитектора, живущего в Берлине, не интересует прошлое. Пришедшее из Израиля известие о смерти отца напоминает ему о его корнях. Приехав в страну он узнает, что его обманули. Его отец, ученый, 20 лет проведший в тюрьме по обвинению в шпионаже в пользу СССР, не умер, а сбежал из тюрьмы. Вольф, агрессивный и обсессивный агент ШАБАКа, и его молодой помощник Карми, втолковывают Гери, что тот не сможет покинуть страну, пока его отец не будет пойман. Вместе с Том, молодой тель-авивской актрисой, он отправляется в путь по пятам своего отца, а Вольф и Карми непрестанно их преследуют. Этот путь, в первые в жизни Гери, заставит его столкнутся со своим травматическим прошлым.
Доп. информация: За предоставленную запись огромное спасибо abraka.
Участник основной программы Берлинского кинофестиваля 1997.
Сэмпл: http://multi-up.com/1085725
Качество видео: SATRip
Формат видео: AVI
Видео: Xvid 704x400 25fps 2195kbps [V: mpeg4 simple profile, yuv420p, 704x400, 2195 kb/s]
Аудио: MP3 48000Hz stereo 128kbps [A: mp3, 48000 Hz, stereo, 128 kb/s]
Формат субтитров: hardsub (неотключаемые)

MediaInfo

General
Complete name : C:\Downloads\Ne ver' glazam svoim.avi
Format : AVI
Format/Info : Audio Video Interleave
File size : 1.49 GiB
Duration : 1h 31mn
Overall bit rate : 2 333 Kbps
Writing library : VirtualDub-MPEG2 build 24600/release
Video
ID : 0
Format : MPEG-4 Visual
Format profile : Simple@L5
Format settings, BVOP : No
Format settings, QPel : No
Format settings, GMC : No warppoints
Format settings, Matrix : Default (H.263)
Codec ID : XVID
Codec ID/Hint : XviD
Duration : 1h 31mn
Bit rate : 2 195 Kbps
Width : 704 pixels
Height : 400 pixels
Display aspect ratio : 16:9
Frame rate : 25.000 fps
Color space : YUV
Chroma subsampling : 4:2:0
Bit depth : 8 bits
Scan type : Progressive
Compression mode : Lossy
Bits/(Pixel*Frame) : 0.312
Stream size : 1.40 GiB (94%)
Writing library : XviD 73
Audio
ID : 1
Format : MPEG Audio
Format version : Version 1
Format profile : Layer 3
Mode : Joint stereo
Mode extension : MS Stereo
Codec ID : 55
Codec ID/Hint : MP3
Duration : 1h 31mn
Bit rate mode : Constant
Bit rate : 128 Kbps
Channel(s) : 2 channels
Sampling rate : 48.0 KHz
Compression mode : Lossy
Stream size : 83.7 MiB (5%)
Alignment : Split accross interleaves
Interleave, duration : 40 ms (1.00 video frame)
Interleave, preload duration : 500 ms

Скриншоты




[teatrix.ru].t14398.torrent 
Торрент: Зарегистрирован [ 2016-01-24 18:40 ] · F0C44A0AE5955E886B0A7B95E89CF97C12DF15D2

Скачать .torrent

Скачать

15 KB

Статус: проверено
Скачан: 0 раз
Размер: 1.49 GB
terms.php



Быстрый ответ

Имя:

      
Для отправки сообщений необходимо включить JavaScript
Показать сообщения:    

Текущее время: 03-Дек 03:22

Часовой пояс: UTC + 3


Вы можете начинать темы
Вы можете отвечать на сообщения
Вы не можете редактировать свои сообщения
Вы не можете удалять свои сообщения
Вы не можете голосовать в опросах
Вы не можете прикреплять файлы к сообщениям
Вы можете скачивать файлы