(Classical/Vocal) Schubert: Lieder [after Mayrhofer] (Christoph Pregardien, Andreas Staier) - 2001, FLAC (tracks+.cue) lossless


 

[Цитировать]

Christoph Prégardien • Andreas Staier— Franz Schubert: Lieder (after Mayrhofer)-Classical/Vocal • Teldec • 2001 • lossless • FLAC • tracks+.cue • 01:10:13• what.cd-01. D 526 Fahrt zum Hades
02. D 700 Freiwilliges Versinken
03. D 699 Der entsühnte Orest
04. D 707 op. 36 No. 1 Der zürnenden Diana
05. D 360 op .65 No. 1 Lied eines Schiffers an die Dioskuren
06. D 553 op. 21 No. 1 Auf der Donau
07. D 536 op. 21 No. 2 Der Schiffer (Im Winde, im Sturme befahr ich den Fluß)
08. D 670 op. post. 165 No.2 Die Sternennächte
09. D 475 Abschied
10. D 672 op. 36 No.2 Nachtstück
11. D 450 Fragment aus dem Aeschylus
12. D 542 op. 6 No.2 Antigone und Oedip
13. D 541 op. 6 No.1 Memnon
14. D 540 Philoktet
15. D 585 Atys
16. D 805 Der Sieg
17. D 525 op. 21 No.3 Wie Ulfru fischt
18. D 524 op. 13 No.3 Der Alpenjäger (Auf hohem Bergesrücken)
19. D 752 Nachtviolen
20. D 806 Abendstern
21. D 561 Nach einem Gewitter
22. D 808 Gondelfahrer
23. D 807 Auflösung
-Christoph Prégardien - vocal || Andreas Staier - piano-

cue

REM GENRE Classical
REM DATE 2001
REM DISCID 75107517
REM COMMENT "ExactAudioCopy v1.0b1"
FILE "Franz Schubert - 2001 - Lieder nach Gedichten von Johann Baptist Mayrhofer (Christoph Pregardien - Andreas Staier)\01 - D 526 Fahrt zum Hades.wav" WAVE
TRACK 01 AUDIO
INDEX 01 00:00:00
FILE "Franz Schubert - 2001 - Lieder nach Gedichten von Johann Baptist Mayrhofer (Christoph Pregardien - Andreas Staier)\02 - D 700 Freiwilliges Versinken.wav" WAVE
TRACK 02 AUDIO
INDEX 01 00:00:00
FILE "Franz Schubert - 2001 - Lieder nach Gedichten von Johann Baptist Mayrhofer (Christoph Pregardien - Andreas Staier)\03 - D 699 Der entsьhnte Orest.wav" WAVE
TRACK 03 AUDIO
INDEX 01 00:00:00
FILE "Franz Schubert - 2001 - Lieder nach Gedichten von Johann Baptist Mayrhofer (Christoph Pregardien - Andreas Staier)\04 - D 707 op. 36 No. 1 Der zьrnenden Diana.wav" WAVE
TRACK 04 AUDIO
INDEX 01 00:00:00
TRACK 05 AUDIO
INDEX 00 04:51:62
FILE "Franz Schubert - 2001 - Lieder nach Gedichten von Johann Baptist Mayrhofer (Christoph Pregardien - Andreas Staier)\05 - D 360 op .65 No. 1 Lied eines Schiffers an die Dioskuren.wav" WAVE
INDEX 01 00:00:00
FILE "Franz Schubert - 2001 - Lieder nach Gedichten von Johann Baptist Mayrhofer (Christoph Pregardien - Andreas Staier)\06 - D 553 op. 21 No. 1 Auf der Donau.wav" WAVE
TRACK 06 AUDIO
INDEX 01 00:00:00
FILE "Franz Schubert - 2001 - Lieder nach Gedichten von Johann Baptist Mayrhofer (Christoph Pregardien - Andreas Staier)\07 - D 536 op. 21 No. 2 Der Schiffer (Im Winde, im Sturme befahr ich den FluЯ).wav" WAVE
TRACK 07 AUDIO
INDEX 01 00:00:00
FILE "Franz Schubert - 2001 - Lieder nach Gedichten von Johann Baptist Mayrhofer (Christoph Pregardien - Andreas Staier)\08 - D 670 op. post. 165 No.2 Die Sternennдchte.wav" WAVE
TRACK 08 AUDIO
INDEX 01 00:00:00
FILE "Franz Schubert - 2001 - Lieder nach Gedichten von Johann Baptist Mayrhofer (Christoph Pregardien - Andreas Staier)\09 - D 475 Abschied.wav" WAVE
TRACK 09 AUDIO
INDEX 01 00:00:00
FILE "Franz Schubert - 2001 - Lieder nach Gedichten von Johann Baptist Mayrhofer (Christoph Pregardien - Andreas Staier)\10 - D 672 op. 36 No.2 Nachtstьck.wav" WAVE
TRACK 10 AUDIO
INDEX 01 00:00:00
FILE "Franz Schubert - 2001 - Lieder nach Gedichten von Johann Baptist Mayrhofer (Christoph Pregardien - Andreas Staier)\11 - D 450 Fragment aus dem Aeschylus.wav" WAVE
TRACK 11 AUDIO
INDEX 01 00:00:00
FILE "Franz Schubert - 2001 - Lieder nach Gedichten von Johann Baptist Mayrhofer (Christoph Pregardien - Andreas Staier)\12 - D 542 op. 6 No.2 Antigone und Oedip.wav" WAVE
TRACK 12 AUDIO
INDEX 01 00:00:00
FILE "Franz Schubert - 2001 - Lieder nach Gedichten von Johann Baptist Mayrhofer (Christoph Pregardien - Andreas Staier)\13 - D 541 op. 6 No.1 Memnon.wav" WAVE
TRACK 13 AUDIO
INDEX 01 00:00:00
FILE "Franz Schubert - 2001 - Lieder nach Gedichten von Johann Baptist Mayrhofer (Christoph Pregardien - Andreas Staier)\14 - D 540 Philoktet.wav" WAVE
TRACK 14 AUDIO
INDEX 01 00:00:00
FILE "Franz Schubert - 2001 - Lieder nach Gedichten von Johann Baptist Mayrhofer (Christoph Pregardien - Andreas Staier)\15 - D 585 Atys.wav" WAVE
TRACK 15 AUDIO
INDEX 01 00:00:00
FILE "Franz Schubert - 2001 - Lieder nach Gedichten von Johann Baptist Mayrhofer (Christoph Pregardien - Andreas Staier)\16 - D 805 Der Sieg.wav" WAVE
TRACK 16 AUDIO
INDEX 01 00:00:00
FILE "Franz Schubert - 2001 - Lieder nach Gedichten von Johann Baptist Mayrhofer (Christoph Pregardien - Andreas Staier)\17 - D 525 op. 21 No.3 Wie Ulfru fischt.wav" WAVE
TRACK 17 AUDIO
INDEX 01 00:00:00
FILE "Franz Schubert - 2001 - Lieder nach Gedichten von Johann Baptist Mayrhofer (Christoph Pregardien - Andreas Staier)\18 - D 524 op. 13 No.3 Der Alpenjдger (Auf hohem Bergesrьcken).wav" WAVE
TRACK 18 AUDIO
INDEX 01 00:00:00
FILE "Franz Schubert - 2001 - Lieder nach Gedichten von Johann Baptist Mayrhofer (Christoph Pregardien - Andreas Staier)\19 - D 752 Nachtviolen.wav" WAVE
TRACK 19 AUDIO
INDEX 01 00:00:00
FILE "Franz Schubert - 2001 - Lieder nach Gedichten von Johann Baptist Mayrhofer (Christoph Pregardien - Andreas Staier)\20 - D 806 Abendstern.wav" WAVE
TRACK 20 AUDIO
INDEX 01 00:00:00
FILE "Franz Schubert - 2001 - Lieder nach Gedichten von Johann Baptist Mayrhofer (Christoph Pregardien - Andreas Staier)\21 - D 561 Nach einem Gewitter.wav" WAVE
TRACK 21 AUDIO
INDEX 01 00:00:00
FILE "Franz Schubert - 2001 - Lieder nach Gedichten von Johann Baptist Mayrhofer (Christoph Pregardien - Andreas Staier)\22 - D 808 Gondelfahrer.wav" WAVE
TRACK 22 AUDIO
INDEX 01 00:00:00
FILE "Franz Schubert - 2001 - Lieder nach Gedichten von Johann Baptist Mayrhofer (Christoph Pregardien - Andreas Staier)\23 - D 807 Auflцsung.wav" WAVE
TRACK 23 AUDIO
INDEX 01 00:00:00

EAC

Exact Audio Copy V1.0 beta 1 from 15. November 2010
EAC extraction logfile from 24. April 2011, 19:53
Franz Schubert / Lieder nach Gedichten von Johann Baptist Mayrhofer (Christoph Pregardien - Andreas Staier)
Used drive : TSSTcorpCD/DVDW SH-S182D Adapter: 1 ID: 0
Read mode : Secure
Utilize accurate stream : Yes
Defeat audio cache : Yes
Make use of C2 pointers : No
Read offset correction : 6
Overread into Lead-In and Lead-Out : No
Fill up missing offset samples with silence : Yes
Delete leading and trailing silent blocks : No
Null samples used in CRC calculations : Yes
Used interface : Native Win32 interface for Win NT & 2000
Gap handling : Appended to previous track
Used output format : User Defined Encoder
Selected bitrate : 128 kBit/s
Quality : High
Add ID3 tag : No
Command line compressor : C:\Program Files\Exact Audio Copy\Flac\flac.exe
Additional command line options : -V -8 -T "artist=%a" -T "title=%t" -T "album=%g" -T "date=%y" -T "tracknumber=%n" -T "genre=%m" %s
TOC of the extracted CD
Track | Start | Length | Start sector | End sector
---------------------------------------------------------
1 | 0:00.00 | 4:38.15 | 0 | 20864
2 | 4:38.15 | 3:49.22 | 20865 | 38061
3 | 8:27.37 | 2:25.28 | 38062 | 48964
4 | 10:52.65 | 4:57.70 | 48965 | 71309
5 | 15:50.60 | 3:00.22 | 71310 | 84831
6 | 18:51.07 | 2:43.13 | 84832 | 97069
7 | 21:34.20 | 1:56.25 | 97070 | 105794
8 | 23:30.45 | 2:32.32 | 105795 | 117226
9 | 26:03.02 | 5:46.70 | 117227 | 143246
10 | 31:49.72 | 5:12.10 | 143247 | 166656
11 | 37:02.07 | 2:21.65 | 166657 | 177296
12 | 39:23.72 | 4:33.53 | 177297 | 197824
13 | 43:57.50 | 3:39.67 | 197825 | 214316
14 | 47:37.42 | 1:57.18 | 214317 | 223109
15 | 49:34.60 | 3:59.42 | 223110 | 241076
16 | 53:34.27 | 2:29.43 | 241077 | 252294
17 | 56:03.70 | 1:54.60 | 252295 | 260904
18 | 57:58.55 | 1:52.07 | 260905 | 269311
19 | 59:50.62 | 2:36.30 | 269312 | 281041
20 | 62:27.17 | 2:09.53 | 281042 | 290769
21 | 64:36.70 | 1:39.00 | 290770 | 298194
22 | 66:15.70 | 1:41.40 | 298195 | 305809
23 | 67:57.35 | 2:16.00 | 305810 | 316009
Track 1
Filename F:\EACrips\Franz Schubert - 2001 - Lieder nach Gedichten von Johann Baptist Mayrhofer (Christoph Pregardien - Andreas Staier)\01 - D 526 Fahrt zum Hades.wav
Pre-gap length 0:00:02.00
Peak level 60.8 %
Extraction speed 4.8 X
Track quality 100.0 %
Test CRC A6BA8889
Copy CRC A6BA8889
Accurately ripped (confidence 6) [AF7EBEA5]
Copy OK
Track 2
Filename F:\EACrips\Franz Schubert - 2001 - Lieder nach Gedichten von Johann Baptist Mayrhofer (Christoph Pregardien - Andreas Staier)\02 - D 700 Freiwilliges Versinken.wav
Peak level 40.7 %
Extraction speed 5.1 X
Track quality 100.0 %
Test CRC 0C458DB2
Copy CRC 0C458DB2
Accurately ripped (confidence 6) [49EC6AE8]
Copy OK
Track 3
Filename F:\EACrips\Franz Schubert - 2001 - Lieder nach Gedichten von Johann Baptist Mayrhofer (Christoph Pregardien - Andreas Staier)\03 - D 699 Der entsühnte Orest.wav
Peak level 66.5 %
Extraction speed 5.0 X
Track quality 100.0 %
Test CRC 6417164A
Copy CRC 6417164A
Accurately ripped (confidence 6) [E8CA1B25]
Copy OK
Track 4
Filename F:\EACrips\Franz Schubert - 2001 - Lieder nach Gedichten von Johann Baptist Mayrhofer (Christoph Pregardien - Andreas Staier)\04 - D 707 op. 36 No. 1 Der zürnenden Diana.wav
Peak level 73.9 %
Extraction speed 6.0 X
Track quality 100.0 %
Test CRC 3901F1FC
Copy CRC 3901F1FC
Accurately ripped (confidence 6) [FD617CBB]
Copy OK
Track 5
Filename F:\EACrips\Franz Schubert - 2001 - Lieder nach Gedichten von Johann Baptist Mayrhofer (Christoph Pregardien - Andreas Staier)\05 - D 360 op .65 No. 1 Lied eines Schiffers an die Dioskuren.wav
Pre-gap length 0:00:06.10
Peak level 53.3 %
Extraction speed 5.0 X
Track quality 99.9 %
Test CRC 21C344A9
Copy CRC 21C344A9
Accurately ripped (confidence 6) [F2103675]
Copy OK
Track 6
Filename F:\EACrips\Franz Schubert - 2001 - Lieder nach Gedichten von Johann Baptist Mayrhofer (Christoph Pregardien - Andreas Staier)\06 - D 553 op. 21 No. 1 Auf der Donau.wav
Peak level 75.4 %
Extraction speed 5.9 X
Track quality 100.0 %
Test CRC 60560BFF
Copy CRC 60560BFF
Accurately ripped (confidence 6) [856637F7]
Copy OK
Track 7
Filename F:\EACrips\Franz Schubert - 2001 - Lieder nach Gedichten von Johann Baptist Mayrhofer (Christoph Pregardien - Andreas Staier)\07 - D 536 op. 21 No. 2 Der Schiffer (Im Winde, im Sturme befahr ich den Fluß).wav
Peak level 82.5 %
Extraction speed 5.7 X
Track quality 100.0 %
Test CRC 4AAB119C
Copy CRC 4AAB119C
Accurately ripped (confidence 6) [7D27454E]
Copy OK
Track 8
Filename F:\EACrips\Franz Schubert - 2001 - Lieder nach Gedichten von Johann Baptist Mayrhofer (Christoph Pregardien - Andreas Staier)\08 - D 670 op. post. 165 No.2 Die Sternennächte.wav
Peak level 52.0 %
Extraction speed 5.0 X
Track quality 99.9 %
Test CRC 453FED78
Copy CRC 453FED78
Accurately ripped (confidence 6) [9034AD6A]
Copy OK
Track 9
Filename F:\EACrips\Franz Schubert - 2001 - Lieder nach Gedichten von Johann Baptist Mayrhofer (Christoph Pregardien - Andreas Staier)\09 - D 475 Abschied.wav
Peak level 13.2 %
Extraction speed 7.1 X
Track quality 100.0 %
Test CRC 693FEF48
Copy CRC 693FEF48
Accurately ripped (confidence 6) [BF44E546]
Copy OK
Track 10
Filename F:\EACrips\Franz Schubert - 2001 - Lieder nach Gedichten von Johann Baptist Mayrhofer (Christoph Pregardien - Andreas Staier)\10 - D 672 op. 36 No.2 Nachtstück.wav
Peak level 24.5 %
Extraction speed 6.4 X
Track quality 99.9 %
Test CRC 46EA0045
Copy CRC 46EA0045
Accurately ripped (confidence 6) [2CD818E0]
Copy OK
Track 11
Filename F:\EACrips\Franz Schubert - 2001 - Lieder nach Gedichten von Johann Baptist Mayrhofer (Christoph Pregardien - Andreas Staier)\11 - D 450 Fragment aus dem Aeschylus.wav
Peak level 79.3 %
Extraction speed 7.0 X
Track quality 100.0 %
Test CRC AADE027A
Copy CRC AADE027A
Accurately ripped (confidence 6) [0695333C]
Copy OK
Track 12
Filename F:\EACrips\Franz Schubert - 2001 - Lieder nach Gedichten von Johann Baptist Mayrhofer (Christoph Pregardien - Andreas Staier)\12 - D 542 op. 6 No.2 Antigone und Oedip.wav
Peak level 85.6 %
Extraction speed 7.0 X
Track quality 100.0 %
Test CRC 68844770
Copy CRC 68844770
Accurately ripped (confidence 6) [2B84A1E7]
Copy OK
Track 13
Filename F:\EACrips\Franz Schubert - 2001 - Lieder nach Gedichten von Johann Baptist Mayrhofer (Christoph Pregardien - Andreas Staier)\13 - D 541 op. 6 No.1 Memnon.wav
Peak level 55.5 %
Extraction speed 7.8 X
Track quality 100.0 %
Test CRC AAB07450
Copy CRC AAB07450
Accurately ripped (confidence 6) [231F03C0]
Copy OK
Track 14
Filename F:\EACrips\Franz Schubert - 2001 - Lieder nach Gedichten von Johann Baptist Mayrhofer (Christoph Pregardien - Andreas Staier)\14 - D 540 Philoktet.wav
Peak level 64.0 %
Extraction speed 5.8 X
Track quality 99.9 %
Test CRC F443C316
Copy CRC F443C316
Accurately ripped (confidence 6) [40A5BA68]
Copy OK
Track 15
Filename F:\EACrips\Franz Schubert - 2001 - Lieder nach Gedichten von Johann Baptist Mayrhofer (Christoph Pregardien - Andreas Staier)\15 - D 585 Atys.wav
Peak level 53.1 %
Extraction speed 8.3 X
Track quality 100.0 %
Test CRC 69F96F39
Copy CRC 69F96F39
Accurately ripped (confidence 6) [7C6F50F4]
Copy OK
Track 16
Filename F:\EACrips\Franz Schubert - 2001 - Lieder nach Gedichten von Johann Baptist Mayrhofer (Christoph Pregardien - Andreas Staier)\16 - D 805 Der Sieg.wav
Peak level 60.8 %
Extraction speed 7.1 X
Track quality 100.0 %
Test CRC 0404E299
Copy CRC 0404E299
Accurately ripped (confidence 6) [73DA01EC]
Copy OK
Track 17
Filename F:\EACrips\Franz Schubert - 2001 - Lieder nach Gedichten von Johann Baptist Mayrhofer (Christoph Pregardien - Andreas Staier)\17 - D 525 op. 21 No.3 Wie Ulfru fischt.wav
Peak level 90.1 %
Extraction speed 7.3 X
Track quality 100.0 %
Test CRC 06E5C427
Copy CRC 06E5C427
Accurately ripped (confidence 6) [095F3D94]
Copy OK
Track 18
Filename F:\EACrips\Franz Schubert - 2001 - Lieder nach Gedichten von Johann Baptist Mayrhofer (Christoph Pregardien - Andreas Staier)\18 - D 524 op. 13 No.3 Der Alpenjäger (Auf hohem Bergesrücken).wav
Peak level 65.3 %
Extraction speed 7.5 X
Track quality 100.0 %
Test CRC C32E7C72
Copy CRC C32E7C72
Accurately ripped (confidence 6) [60EFA652]
Copy OK
Track 19
Filename F:\EACrips\Franz Schubert - 2001 - Lieder nach Gedichten von Johann Baptist Mayrhofer (Christoph Pregardien - Andreas Staier)\19 - D 752 Nachtviolen.wav
Peak level 17.7 %
Extraction speed 6.8 X
Track quality 99.9 %
Test CRC A4D78132
Copy CRC A4D78132
Accurately ripped (confidence 6) [6999BC21]
Copy OK
Track 20
Filename F:\EACrips\Franz Schubert - 2001 - Lieder nach Gedichten von Johann Baptist Mayrhofer (Christoph Pregardien - Andreas Staier)\20 - D 806 Abendstern.wav
Peak level 26.2 %
Extraction speed 8.0 X
Track quality 100.0 %
Test CRC 97CA2884
Copy CRC 97CA2884
Accurately ripped (confidence 6) [285E86B3]
Copy OK
Track 21
Filename F:\EACrips\Franz Schubert - 2001 - Lieder nach Gedichten von Johann Baptist Mayrhofer (Christoph Pregardien - Andreas Staier)\21 - D 561 Nach einem Gewitter.wav
Peak level 23.2 %
Extraction speed 6.1 X
Track quality 100.0 %
Test CRC 37F57401
Copy CRC 37F57401
Accurately ripped (confidence 6) [E4464335]
Copy OK
Track 22
Filename F:\EACrips\Franz Schubert - 2001 - Lieder nach Gedichten von Johann Baptist Mayrhofer (Christoph Pregardien - Andreas Staier)\22 - D 808 Gondelfahrer.wav
Peak level 19.0 %
Extraction speed 6.7 X
Track quality 100.0 %
Test CRC 37CB9820
Copy CRC 37CB9820
Accurately ripped (confidence 6) [2F13ED89]
Copy OK
Track 23
Filename F:\EACrips\Franz Schubert - 2001 - Lieder nach Gedichten von Johann Baptist Mayrhofer (Christoph Pregardien - Andreas Staier)\23 - D 807 Auflösung.wav
Peak level 53.9 %
Extraction speed 8.0 X
Track quality 100.0 %
Test CRC 35462AC6
Copy CRC 35462AC6
Accurately ripped (confidence 6) [56E9A006]
Copy OK
All tracks accurately ripped
No errors occurred
End of status report
==== Log checksum 77CE4EE1C283A8F4F0B19038609DA9779CB43394C01974F7A97855913DAD5D14 ====



Показать сообщения:    

Текущее время: 05-Дек 19:34

Часовой пояс: UTC + 3


Вы не можете начинать темы
Вы не можете отвечать на сообщения
Вы не можете редактировать свои сообщения
Вы не можете удалять свои сообщения
Вы не можете голосовать в опросах
Вы не можете прикреплять файлы к сообщениям
Вы не можете скачивать файлы