(Classical/Orchestral) Stravinsky / Стравинский: Le Sacre du printemps / Весна священная, Petrouchka / Петрушка (1911) (Les Siecles (Francois-Xavier Roth) - 2014, FLAC (tracks+.cue) lossless


Статистика раздачи [Обновить пиров]
Размер:  289 MB   |    Зарегистрирован:  10 месяцев 10 дней   |    Скачан:  0 раз

Полного источника не было: Никогда

Личеров:  4  [  0 KB/s  ]   Подробная статистика пиров
 
   
 
 
 

[Цитировать]

Les Siècles • François-Xavier Roth — Igor Stravinsky: Le Sacre du printemps, Petrouchka-Classical/Orchestral • Actes Sud • ASM15 • 2014 • lossless • FLAC • tracks+.cue • 01:08:52 • what.cd-01-13. La sacre du printemps (1913)
14-24. Petrouchka (Version 1911)
-Les Siècles (on periods instruments) || François-Xavier Roth - conductor-

cue

REM GENRE "Orchestral Music"
REM DATE 2014
REM DISCID 75102418
REM COMMENT "ExactAudioCopy v1.1"
PERFORMER "Les Siecles"
TITLE "Le Sacre du printemps, Petrouchka"
FILE "01 - La Sacre du printemps - Premere Partie - L'adoration de la Terre.wav" WAVE
TRACK 01 AUDIO
TITLE "La Sacre du printemps - Premere Partie - L'adoration de la Terre"
PERFORMER "Les Siecles"
INDEX 01 00:00:00
FILE "02 - La Sacre du printemps - Premere Partie - Danse des adolescentes.wav" WAVE
TRACK 02 AUDIO
TITLE "La Sacre du printemps - Premere Partie - Danse des adolescentes"
PERFORMER "Les Siecles"
INDEX 01 00:00:00
FILE "03 - La Sacre du printemps - Premere Partie - Jeu du rapt.wav" WAVE
TRACK 03 AUDIO
TITLE "La Sacre du printemps - Premere Partie - Jeu du rapt"
PERFORMER "Les Siecles"
INDEX 01 00:00:00
FILE "04 - La Sacre du printemps - Premere Partie - Augures printaniers.wav" WAVE
TRACK 04 AUDIO
TITLE "La Sacre du printemps - Premere Partie - Augures printaniers"
PERFORMER "Les Siecles"
INDEX 01 00:00:00
FILE "05 - La Sacre du printemps - Premere Partie - Jeu des cites rivales.wav" WAVE
TRACK 05 AUDIO
TITLE "La Sacre du printemps - Premere Partie - Jeu des cites rivales"
PERFORMER "Les Siecles"
INDEX 01 00:00:00
FILE "06 - La Sacre du printemps - Premere Partie - Cortege du Sage.wav" WAVE
TRACK 06 AUDIO
TITLE "La Sacre du printemps - Premere Partie - Cortege du Sage"
PERFORMER "Les Siecles"
INDEX 01 00:00:00
FILE "07 - La Sacre du printemps - Premere Partie - Le Sage.wav" WAVE
TRACK 07 AUDIO
TITLE "La Sacre du printemps - Premere Partie - Le Sage"
PERFORMER "Les Siecles"
INDEX 01 00:00:00
FILE "08 - La Sacre du printemps - Premere Partie - Danse de la Terre.wav" WAVE
TRACK 08 AUDIO
TITLE "La Sacre du printemps - Premere Partie - Danse de la Terre"
PERFORMER "Les Siecles"
INDEX 01 00:00:00
TRACK 09 AUDIO
TITLE "La Sacre du printemps - Seconde Partie - Le sacrifice"
PERFORMER "Les Siecles"
INDEX 00 01:07:63
FILE "09 - La Sacre du printemps - Seconde Partie - Le sacrifice.wav" WAVE
INDEX 01 00:00:00
FILE "10 - La Sacre du printemps - Seconde Partie - Cercle mysterieux des adolescentes.wav" WAVE
TRACK 10 AUDIO
TITLE "La Sacre du printemps - Seconde Partie - Cercle mysterieux des adolescentes"
PERFORMER "Les Siecles"
INDEX 01 00:00:00
FILE "11 - La Sacre du printemps - Seconde Partie - Glorification de l'elue.wav" WAVE
TRACK 11 AUDIO
TITLE "La Sacre du printemps - Seconde Partie - Glorification de l'elue"
PERFORMER "Les Siecles"
INDEX 01 00:00:00
FILE "12 - La Sacre du printemps - Seconde Partie - Evocation des ancetres.wav" WAVE
TRACK 12 AUDIO
TITLE "La Sacre du printemps - Seconde Partie - Evocation des ancetres"
PERFORMER "Les Siecles"
INDEX 01 00:00:00
FILE "13 - La Sacre du printemps - Seconde Partie - Danse sacrale.wav" WAVE
TRACK 13 AUDIO
TITLE "La Sacre du printemps - Seconde Partie - Danse sacrale"
PERFORMER "Les Siecles"
INDEX 01 00:00:00
TRACK 14 AUDIO
TITLE "Petrouchka - Premier Tableau - Fete populaire de la Semaie grasse"
PERFORMER "Les Siecles"
INDEX 00 04:30:10
FILE "14 - Petrouchka - Premier Tableau - Fete populaire de la Semaie grasse.wav" WAVE
INDEX 01 00:00:00
FILE "15 - Petrouchka - Premier Tableau - Le tour de passe-passe.wav" WAVE
TRACK 15 AUDIO
TITLE "Petrouchka - Premier Tableau - Le tour de passe-passe"
PERFORMER "Les Siecles"
INDEX 01 00:00:00
FILE "16 - Petrouchka - Premier Tableau - Danse russe.wav" WAVE
TRACK 16 AUDIO
TITLE "Petrouchka - Premier Tableau - Danse russe"
PERFORMER "Les Siecles"
INDEX 01 00:00:00
FILE "17 - Petrouchka - Second Tableau - Chez Petrouchka.wav" WAVE
TRACK 17 AUDIO
TITLE "Petrouchka - Second Tableau - Chez Petrouchka"
PERFORMER "Les Siecles"
INDEX 01 00:00:00
FILE "18 - Petrouchka - Troiseieme Tableau - Chez la Maure.wav" WAVE
TRACK 18 AUDIO
TITLE "Petrouchka - Troiseieme Tableau - Chez la Maure"
PERFORMER "Les Siecles"
INDEX 01 00:00:00
FILE "19 - Petrouchka - Troiseieme Tableau - Danse de la ballerine.wav" WAVE
TRACK 19 AUDIO
TITLE "Petrouchka - Troiseieme Tableau - Danse de la ballerine"
PERFORMER "Les Siecles"
INDEX 01 00:00:00
FILE "20 - Petrouchka - Troiseieme Tableau - Valse (la ballerine et le Maure).wav" WAVE
TRACK 20 AUDIO
TITLE "Petrouchka - Troiseieme Tableau - Valse (la ballerine et le Maure)"
PERFORMER "Les Siecles"
INDEX 01 00:00:00
FILE "21 - Petrouchka - Quatrieme Tableau - Fete populaire de la Semaine grasse (vers le soir).wav" WAVE
TRACK 21 AUDIO
TITLE "Petrouchka - Quatrieme Tableau - Fete populaire de la Semaine grasse (vers le..."
PERFORMER "Les Siecles"
INDEX 01 00:00:00
FILE "22 - Petrouchka - Quatrieme Tableau - Danse des hounous.wav" WAVE
TRACK 22 AUDIO
TITLE "Petrouchka - Quatrieme Tableau - Danse des hounous"
PERFORMER "Les Siecles"
INDEX 01 00:00:00
FILE "23 - Petrouchka - Quatrieme Tableau - Danse des cochers et des palefreniers.wav" WAVE
TRACK 23 AUDIO
TITLE "Petrouchka - Quatrieme Tableau - Danse des cochers et des palefreniers"
PERFORMER "Les Siecles"
INDEX 01 00:00:00
FILE "24 - Petrouchka - Quatrieme Tableau - Les deguises.wav" WAVE
TRACK 24 AUDIO
TITLE "Petrouchka - Quatrieme Tableau - Les deguises"
PERFORMER "Les Siecles"
INDEX 01 00:00:00

EAC

Exact Audio Copy V1.1 from 23. June 2015
EAC extraction logfile from 5. January 2016, 6:45
Les Siecles / Le Sacre du printemps, Petrouchka
Used drive : TSSTcorpCDDVDW SN-208DN Adapter: 1 ID: 0
Read mode : Secure
Utilize accurate stream : Yes
Defeat audio cache : Yes
Make use of C2 pointers : No
Read offset correction : 6
Overread into Lead-In and Lead-Out : No
Fill up missing offset samples with silence : Yes
Delete leading and trailing silent blocks : No
Null samples used in CRC calculations : Yes
Used interface : Native Win32 interface for Win NT & 2000
Gap handling : Appended to previous track
Used output format : User Defined Encoder
Selected bitrate : 1024 kBit/s
Quality : High
Add ID3 tag : No
Command line compressor : C:\Program Files (x86)\Exact Audio Copy\FLAC\FLAC.EXE
Additional command line options : -8 -V -T "ARTIST=%artist%" -T "TITLE=%title%" -T "ALBUM=%albumtitle%" -T "DATE=%year%" -T "TRACKNUMBER=%tracknr%" -T "GENRE=%genre%" -T "PERFORMER=%albuminterpret%" -T "COMPOSER=%composer%" %haslyrics%--tag-from-file=LYRICS="%lyricsfile%"%haslyrics% -T "ALBUMARTIST=%albumartist%" -T "DISCNUMBER=%cdnumber%" -T "TOTALDISCS=%totalcds%" -T "TOTALTRACKS=%numtracks%" -T "COMMENT=%comment%" %source% -o %dest%
TOC of the extracted CD
Track | Start | Length | Start sector | End sector
---------------------------------------------------------
1 | 0:00.00 | 3:24.35 | 0 | 15334
2 | 3:24.35 | 3:02.01 | 15335 | 28985
3 | 6:26.36 | 1:19.25 | 28986 | 34935
4 | 7:45.61 | 3:25.15 | 34936 | 50325
5 | 11:11.01 | 1:47.49 | 50326 | 58399
6 | 12:58.50 | 0:43.03 | 58400 | 61627
7 | 13:41.53 | 0:24.62 | 61628 | 63489
8 | 14:06.40 | 1:17.04 | 63490 | 69268
9 | 15:23.44 | 4:30.05 | 69269 | 89523
10 | 19:53.49 | 3:22.43 | 89524 | 104716
11 | 23:16.17 | 1:25.27 | 104717 | 111118
12 | 24:41.44 | 4:35.54 | 111119 | 131797
13 | 29:17.23 | 4:38.46 | 131798 | 152693
14 | 33:55.69 | 5:20.02 | 152694 | 176695
15 | 39:15.71 | 1:55.10 | 176696 | 185330
16 | 41:11.06 | 2:47.23 | 185331 | 197878
17 | 43:58.29 | 4:20.02 | 197879 | 217380
18 | 48:18.31 | 3:06.32 | 217381 | 231362
19 | 51:24.63 | 0:44.33 | 231363 | 234695
20 | 52:09.21 | 3:04.64 | 234696 | 248559
21 | 55:14.10 | 1:13.40 | 248560 | 254074
22 | 56:27.50 | 4:56.23 | 254075 | 276297
23 | 61:23.73 | 2:03.30 | 276298 | 285552
24 | 63:27.28 | 5:25.17 | 285553 | 309944
Track 1
Filename C:\EAC Rips\01 - La Sacre du printemps - Premere Partie - L'adoration de la Terre.wav
Pre-gap length 0:00:02.00
Peak level 21.2 %
Extraction speed 1.1 X
Track quality 100.0 %
Test CRC 65DE4F33
Copy CRC 65DE4F33
Accurately ripped (confidence 24) [FB758B58] (AR v2)
Copy OK
Track 2
Filename C:\EAC Rips\02 - La Sacre du printemps - Premere Partie - Danse des adolescentes.wav
Peak level 67.1 %
Extraction speed 1.1 X
Track quality 100.0 %
Test CRC ABC147C0
Copy CRC ABC147C0
Accurately ripped (confidence 24) [4F9053E9] (AR v2)
Copy OK
Track 3
Filename C:\EAC Rips\03 - La Sacre du printemps - Premere Partie - Jeu du rapt.wav
Peak level 85.6 %
Extraction speed 0.7 X
Track quality 99.8 %
Test CRC C3D74169
Copy CRC C3D74169
Accurately ripped (confidence 24) [4CD67B35] (AR v2)
Copy OK
Track 4
Filename C:\EAC Rips\04 - La Sacre du printemps - Premere Partie - Augures printaniers.wav
Peak level 97.0 %
Extraction speed 1.1 X
Track quality 99.9 %
Test CRC 975B5AEF
Copy CRC 975B5AEF
Accurately ripped (confidence 24) [B4A79AA1] (AR v2)
Copy OK
Track 5
Filename C:\EAC Rips\05 - La Sacre du printemps - Premere Partie - Jeu des cites rivales.wav
Peak level 47.3 %
Extraction speed 1.2 X
Track quality 100.0 %
Test CRC C362F9B4
Copy CRC C362F9B4
Accurately ripped (confidence 24) [2E85A4D0] (AR v2)
Copy OK
Track 6
Filename C:\EAC Rips\06 - La Sacre du printemps - Premere Partie - Cortege du Sage.wav
Peak level 70.1 %
Extraction speed 0.8 X
Track quality 100.0 %
Test CRC FA77BA9D
Copy CRC FA77BA9D
Accurately ripped (confidence 24) [1D2436C5] (AR v2)
Copy OK
Track 7
Filename C:\EAC Rips\07 - La Sacre du printemps - Premere Partie - Le Sage.wav
Peak level 3.4 %
Extraction speed 0.6 X
Track quality 100.0 %
Test CRC D8C8D12A
Copy CRC D8C8D12A
Accurately ripped (confidence 24) [F6C8DD26] (AR v2)
Copy OK
Track 8
Filename C:\EAC Rips\08 - La Sacre du printemps - Premere Partie - Danse de la Terre.wav
Peak level 96.2 %
Extraction speed 1.0 X
Track quality 100.0 %
Test CRC CFCA563E
Copy CRC CFCA563E
Accurately ripped (confidence 24) [F075EDBB] (AR v2)
Copy OK
Track 9
Filename C:\EAC Rips\09 - La Sacre du printemps - Seconde Partie - Le sacrifice.wav
Pre-gap length 0:00:09.16
Peak level 24.6 %
Extraction speed 1.5 X
Track quality 100.0 %
Test CRC 9FA470F9
Copy CRC 9FA470F9
Accurately ripped (confidence 24) [0B657618] (AR v2)
Copy OK
Track 10
Filename C:\EAC Rips\10 - La Sacre du printemps - Seconde Partie - Cercle mysterieux des adolescentes.wav
Peak level 56.9 %
Extraction speed 1.5 X
Track quality 100.0 %
Test CRC 7BC7A861
Copy CRC 7BC7A861
Accurately ripped (confidence 24) [34723BEC] (AR v2)
Copy OK
Track 11
Filename C:\EAC Rips\11 - La Sacre du printemps - Seconde Partie - Glorification de l'elue.wav
Peak level 88.9 %
Extraction speed 1.3 X
Track quality 100.0 %
Test CRC 566C49B7
Copy CRC 566C49B7
Accurately ripped (confidence 24) [0F206DFF] (AR v2)
Copy OK
Track 12
Filename C:\EAC Rips\12 - La Sacre du printemps - Seconde Partie - Evocation des ancetres.wav
Peak level 67.6 %
Extraction speed 1.7 X
Track quality 100.0 %
Test CRC 5E663888
Copy CRC 5E663888
Accurately ripped (confidence 24) [3FB0C1F0] (AR v2)
Copy OK
Track 13
Filename C:\EAC Rips\13 - La Sacre du printemps - Seconde Partie - Danse sacrale.wav
Peak level 99.6 %
Extraction speed 1.8 X
Track quality 100.0 %
Test CRC 641C4EC3
Copy CRC 641C4EC3
Accurately ripped (confidence 24) [2748C363] (AR v2)
Copy OK
Track 14
Filename C:\EAC Rips\14 - Petrouchka - Premier Tableau - Fete populaire de la Semaie grasse.wav
Pre-gap length 0:00:08.36
Peak level 99.2 %
Extraction speed 1.7 X
Track quality 99.9 %
Test CRC 71E7A92B
Copy CRC 71E7A92B
Accurately ripped (confidence 24) [8F156726] (AR v2)
Copy OK
Track 15
Filename C:\EAC Rips\15 - Petrouchka - Premier Tableau - Le tour de passe-passe.wav
Peak level 8.4 %
Extraction speed 1.6 X
Track quality 100.0 %
Test CRC ED208AAE
Copy CRC ED208AAE
Accurately ripped (confidence 24) [98CBF5C7] (AR v2)
Copy OK
Track 16
Filename C:\EAC Rips\16 - Petrouchka - Premier Tableau - Danse russe.wav
Peak level 79.9 %
Extraction speed 1.5 X
Track quality 99.9 %
Test CRC 9CE910F3
Copy CRC 9CE910F3
Accurately ripped (confidence 24) [501B7E3E] (AR v2)
Copy OK
Track 17
Filename C:\EAC Rips\17 - Petrouchka - Second Tableau - Chez Petrouchka.wav
Peak level 49.1 %
Extraction speed 2.0 X
Track quality 100.0 %
Test CRC 349BA2FE
Copy CRC 349BA2FE
Accurately ripped (confidence 24) [6D030F59] (AR v2)
Copy OK
Track 18
Filename C:\EAC Rips\18 - Petrouchka - Troiseieme Tableau - Chez la Maure.wav
Peak level 49.0 %
Extraction speed 2.0 X
Track quality 100.0 %
Test CRC 57C63CE2
Copy CRC 57C63CE2
Accurately ripped (confidence 24) [509892B4] (AR v2)
Copy OK
Track 19
Filename C:\EAC Rips\19 - Petrouchka - Troiseieme Tableau - Danse de la ballerine.wav
Peak level 16.3 %
Extraction speed 1.3 X
Track quality 100.0 %
Test CRC 2F9BB263
Copy CRC 2F9BB263
Accurately ripped (confidence 24) [D5CCFC05] (AR v2)
Copy OK
Track 20
Filename C:\EAC Rips\20 - Petrouchka - Troiseieme Tableau - Valse (la ballerine et le Maure).wav
Peak level 77.6 %
Extraction speed 2.0 X
Track quality 100.0 %
Test CRC EEECC9A2
Copy CRC EEECC9A2
Accurately ripped (confidence 24) [5444D7EB] (AR v2)
Copy OK
Track 21
Filename C:\EAC Rips\21 - Petrouchka - Quatrieme Tableau - Fete populaire de la Semaine grasse (vers le soir).wav
Peak level 39.6 %
Extraction speed 1.6 X
Track quality 100.0 %
Test CRC 466C2339
Copy CRC 466C2339
Accurately ripped (confidence 24) [864F50DA] (AR v2)
Copy OK
Track 22
Filename C:\EAC Rips\22 - Petrouchka - Quatrieme Tableau - Danse des hounous.wav
Peak level 41.6 %
Extraction speed 2.2 X
Track quality 100.0 %
Test CRC 0AEE07D9
Copy CRC 0AEE07D9
Accurately ripped (confidence 24) [FAC0156C] (AR v2)
Copy OK
Track 23
Filename C:\EAC Rips\23 - Petrouchka - Quatrieme Tableau - Danse des cochers et des palefreniers.wav
Peak level 67.4 %
Extraction speed 2.0 X
Track quality 100.0 %
Test CRC AC8CEB95
Copy CRC AC8CEB95
Accurately ripped (confidence 24) [D7EE9E4D] (AR v2)
Copy OK
Track 24
Filename C:\EAC Rips\24 - Petrouchka - Quatrieme Tableau - Les deguises.wav
Peak level 48.3 %
Extraction speed 2.4 X
Track quality 100.0 %
Test CRC 45B7FBC0
Copy CRC 45B7FBC0
Accurately ripped (confidence 24) [B971EEC7] (AR v2)
Copy OK
All tracks accurately ripped
No errors occurred
End of status report
---- CUETools DB Plugin V2.1.6
[CTDB TOCID: .4iIaTJAW1qjtcsUpgy7JQ9f47s-] found
Submit result: .4iIaTJAW1qjtcsUpgy7JQ9f47s- has been confirmed
Track | CTDB Status
1 | (17/17) Accurately ripped
2 | (17/17) Accurately ripped
3 | (17/17) Accurately ripped
4 | (17/17) Accurately ripped
5 | (17/17) Accurately ripped
6 | (17/17) Accurately ripped
7 | (17/17) Accurately ripped
8 | (17/17) Accurately ripped
9 | (17/17) Accurately ripped
10 | (17/17) Accurately ripped
11 | (17/17) Accurately ripped
12 | (17/17) Accurately ripped
13 | (17/17) Accurately ripped
14 | (17/17) Accurately ripped
15 | (17/17) Accurately ripped
16 | (16/17) Accurately ripped
17 | (16/17) Accurately ripped
18 | (16/17) Accurately ripped
19 | (16/17) Accurately ripped
20 | (16/17) Accurately ripped
21 | (16/17) Accurately ripped
22 | (16/17) Accurately ripped
23 | (16/17) Accurately ripped
24 | (16/17) Accurately ripped
==== Log checksum 43B93D60A66E95467D0F66DF9097F34247A18024E8E0BEFD0B2590ABA67035E9 ====
[teatrix.ru].t14403.torrent 
Торрент: Зарегистрирован [ 2016-01-24 18:40 ] · C7FA4D9C6A8D2CEDECB9F3D3EDC9AA497EC97219

Скачать .torrent

Скачать

14 KB

Статус: проверено
Скачан: 0 раз
Размер: 289 MB
terms.php



Быстрый ответ

Имя:

      
Для отправки сообщений необходимо включить JavaScript
Показать сообщения:    

Текущее время: 04-Дек 09:08

Часовой пояс: UTC + 3


Вы можете начинать темы
Вы можете отвечать на сообщения
Вы не можете редактировать свои сообщения
Вы не можете удалять свои сообщения
Вы не можете голосовать в опросах
Вы не можете прикреплять файлы к сообщениям
Вы можете скачивать файлы