(Classical/Chamber) Boely: Musique De Chambre (Quatuor Mosaiques) - 2008, FLAC (tracks+.cue) lossless


 

[Цитировать]

Quatuor Mosaiques — Boëly: Musique De Chambre-Classical/Chamber • Laborie • LC05 • 2008 • lossless • FLAC • tracks • 01:17:45• whant.cd-01-04. Trio op. 5
05. Trois Melodies, I
06-09. Quatuor op. 27
10. Mouvement pour Quatuor
11. Trois Melodies, II
12-15. Sextuor
16. Trois Melodies, III
-Erich Höbarth - violin (J. Guarnerius filius Andreae, Cremona 1705) || Andrea Bischof - violin (18th century French)
Anita Mitterer - viola (Girolamo Devirchis, Brescia 1588) || Christophe Coin - cello (C.A. Testore, Milano 1758)-

cue

REM GENRE "Chamber Music"
REM DATE 2008
REM DISCID E0123910
REM COMMENT "ExactAudioCopy v1.0b3"
PERFORMER "Quatuor Mosaiques"
TITLE "Boely: Musique De Chambre"
FILE "01 Trio op. 5, I.flac" WAVE
TRACK 01 AUDIO
TITLE "Trio op. 5, I"
PERFORMER "Quatuor Mosaiques"
ISRC 000000000000
FLAGS DCP
INDEX 01 00:00:00
FILE "02 Trio op. 5, II.flac" WAVE
TRACK 02 AUDIO
TITLE "Trio op. 5, II"
PERFORMER "Quatuor Mosaiques"
ISRC 000000000000
FLAGS DCP
INDEX 01 00:00:00
FILE "03 Trio op. 5, III.flac" WAVE
TRACK 03 AUDIO
TITLE "Trio op. 5, III"
PERFORMER "Quatuor Mosaiques"
ISRC 000000000000
FLAGS DCP
INDEX 01 00:00:00
FILE "04 Trio op. 5, IV.flac" WAVE
TRACK 04 AUDIO
TITLE "Trio op. 5, IV"
PERFORMER "Quatuor Mosaiques"
ISRC 000000000000
FLAGS DCP
INDEX 01 00:00:00
FILE "05 Trois Melodies, I.flac" WAVE
TRACK 05 AUDIO
TITLE "Trois Melodies, I"
PERFORMER "Quatuor Mosaiques"
ISRC 000000000000
FLAGS DCP
INDEX 01 00:00:00
FILE "06 Quatuor op. 27, I.flac" WAVE
TRACK 06 AUDIO
TITLE "Quatuor op. 27, I"
PERFORMER "Quatuor Mosaiques"
ISRC 000000000000
FLAGS DCP
INDEX 01 00:00:00
FILE "07 Quatuor op. 27, II.flac" WAVE
TRACK 07 AUDIO
TITLE "Quatuor op. 27, II"
PERFORMER "Quatuor Mosaiques"
ISRC 000000000000
FLAGS DCP
INDEX 01 00:00:00
FILE "08 Quatuor op. 27, III.flac" WAVE
TRACK 08 AUDIO
TITLE "Quatuor op. 27, III"
PERFORMER "Quatuor Mosaiques"
ISRC 000000000000
FLAGS DCP
INDEX 01 00:00:00
FILE "09 Quatuor op. 27, IV.flac" WAVE
TRACK 09 AUDIO
TITLE "Quatuor op. 27, IV"
PERFORMER "Quatuor Mosaiques"
ISRC 000000000000
FLAGS DCP
INDEX 01 00:00:00
FILE "10 Mouvement pour Quatuor.flac" WAVE
TRACK 10 AUDIO
TITLE "Mouvement pour Quatuor"
PERFORMER "Quatuor Mosaiques"
ISRC 000000000000
FLAGS DCP
INDEX 01 00:00:00
FILE "11 Trois Melodies, II.flac" WAVE
TRACK 11 AUDIO
TITLE "Trois Melodies, II"
PERFORMER "Quatuor Mosaiques"
ISRC 000000000000
FLAGS DCP
INDEX 01 00:00:00
FILE "12 Sextuor, I.flac" WAVE
TRACK 12 AUDIO
TITLE "Sextuor, I"
PERFORMER "Quatuor Mosaiques"
ISRC 000000000000
FLAGS DCP
INDEX 01 00:00:00
FILE "13 Sextuor, II.flac" WAVE
TRACK 13 AUDIO
TITLE "Sextuor, II"
PERFORMER "Quatuor Mosaiques"
ISRC 000000000000
FLAGS DCP
INDEX 01 00:00:00
FILE "14 Sextuor, III.flac" WAVE
TRACK 14 AUDIO
TITLE "Sextuor, III"
PERFORMER "Quatuor Mosaiques"
ISRC 000000000000
FLAGS DCP
INDEX 01 00:00:00
FILE "15 Sextuor, IV.flac" WAVE
TRACK 15 AUDIO
TITLE "Sextuor, IV"
PERFORMER "Quatuor Mosaiques"
ISRC 000000000000
FLAGS DCP
INDEX 01 00:00:00
FILE "16 Trois Melodies, III.flac" WAVE
TRACK 16 AUDIO
TITLE "Trois Melodies, III"
PERFORMER "Quatuor Mosaiques"
ISRC 000000000000
FLAGS DCP
INDEX 01 00:00:00

EAC

Exact Audio Copy V1.0 beta 3 from 29. August 2011
EAC extraction logfile from 1. May 2012, 22:07
Quatuor Mosaiques / Boely: Musique De Chambre
Used drive : PLDS BD-RE DH-8B2SH Adapter: 0 ID: 0
Read mode : Secure
Utilize accurate stream : Yes
Defeat audio cache : Yes
Make use of C2 pointers : No
Read offset correction : 6
Overread into Lead-In and Lead-Out : No
Fill up missing offset samples with silence : Yes
Delete leading and trailing silent blocks : No
Null samples used in CRC calculations : Yes
Used interface : Native Win32 interface for Win NT & 2000
Gap handling : Not detected, thus appended to previous track
Used output format : User Defined Encoder
Selected bitrate : 768 kBit/s
Quality : High
Add ID3 tag : No
Command line compressor : C:\Program Files (x86)\Exact Audio Copy\FLAC\FLAC.EXE
Additional command line options : -6 -V -T "ARTIST=%artist%" -T "TITLE=%title%" -T "ALBUM=%albumtitle%" -T "DATE=%year%" -T "TRACKNUMBER=%tracknr%" -T "GENRE=%genre%" -T "COMMENT=%comment%" -T "BAND=%albuminterpret%" -T "ALBUMARTIST=%albuminterpret%" -T "COMPOSER=%composer%" %haslyrics%--tag-from-file=LYRICS="%lyricsfile%"%haslyrics% -T "DISCNUMBER=%cdnumber%" -T "TOTALDISCS=%totalcds%" -T "TOTALTRACKS=%numtracks%" %hascover%--picture="%coverfile%"%hascover% %source% -o %dest%
TOC of the extracted CD
Track | Start | Length | Start sector | End sector
---------------------------------------------------------
1 | 0:00.00 | 6:57.30 | 0 | 31304
2 | 6:57.30 | 6:59.29 | 31305 | 62758
3 | 13:56.59 | 4:29.57 | 62759 | 82990
4 | 18:26.41 | 6:10.05 | 82991 | 110745
5 | 24:36.46 | 2:19.35 | 110746 | 121205
6 | 26:56.06 | 6:06.47 | 121206 | 148702
7 | 33:02.53 | 6:31.21 | 148703 | 178048
8 | 39:33.74 | 2:30.01 | 178049 | 189299
9 | 42:04.00 | 5:23.66 | 189300 | 213590
10 | 47:27.66 | 7:44.63 | 213591 | 248453
11 | 55:12.54 | 1:45.53 | 248454 | 256381
12 | 56:58.32 | 7:02.32 | 256382 | 288063
13 | 64:00.64 | 4:19.00 | 288064 | 307488
14 | 68:19.64 | 2:18.16 | 307489 | 317854
15 | 70:38.05 | 4:24.01 | 317855 | 337655
16 | 75:02.06 | 2:43.37 | 337656 | 349917
Track 1
Filename C:\EAC\Boely- Musique De Chambre\Boely- Musique De Chambre\01 Trio op. 5, I.wav
Peak level 84.1 %
Extraction speed 5.4 X
Track quality 100.0 %
Test CRC 17CA0382
Copy CRC 17CA0382
Track not present in AccurateRip database
Copy OK
Track 2
Filename C:\EAC\Boely- Musique De Chambre\Boely- Musique De Chambre\02 Trio op. 5, II.wav
Peak level 94.1 %
Extraction speed 6.1 X
Track quality 100.0 %
Test CRC C32BBF26
Copy CRC C32BBF26
Track not present in AccurateRip database
Copy OK
Track 3
Filename C:\EAC\Boely- Musique De Chambre\Boely- Musique De Chambre\03 Trio op. 5, III.wav
Peak level 76.1 %
Extraction speed 6.4 X
Track quality 100.0 %
Test CRC 12A6AE7E
Copy CRC 12A6AE7E
Track not present in AccurateRip database
Copy OK
Track 4
Filename C:\EAC\Boely- Musique De Chambre\Boely- Musique De Chambre\04 Trio op. 5, IV.wav
Peak level 92.6 %
Extraction speed 7.1 X
Track quality 100.0 %
Test CRC 1133787F
Copy CRC 1133787F
Track not present in AccurateRip database
Copy OK
Track 5
Filename C:\EAC\Boely- Musique De Chambre\Boely- Musique De Chambre\05 Trois Melodies, I.wav
Peak level 76.1 %
Extraction speed 6.5 X
Track quality 100.0 %
Test CRC 21F48D9E
Copy CRC 21F48D9E
Track not present in AccurateRip database
Copy OK
Track 6
Filename C:\EAC\Boely- Musique De Chambre\Boely- Musique De Chambre\06 Quatuor op. 27, I.wav
Peak level 83.1 %
Extraction speed 7.7 X
Track quality 100.0 %
Test CRC E14BC1F4
Copy CRC E14BC1F4
Track not present in AccurateRip database
Copy OK
Track 7
Filename C:\EAC\Boely- Musique De Chambre\Boely- Musique De Chambre\07 Quatuor op. 27, II.wav
Peak level 83.3 %
Extraction speed 8.2 X
Track quality 100.0 %
Test CRC B3FB712A
Copy CRC B3FB712A
Track not present in AccurateRip database
Copy OK
Track 8
Filename C:\EAC\Boely- Musique De Chambre\Boely- Musique De Chambre\08 Quatuor op. 27, III.wav
Peak level 84.5 %
Extraction speed 7.5 X
Track quality 100.0 %
Test CRC 57043407
Copy CRC 57043407
Track not present in AccurateRip database
Copy OK
Track 9
Filename C:\EAC\Boely- Musique De Chambre\Boely- Musique De Chambre\09 Quatuor op. 27, IV.wav
Peak level 100.0 %
Extraction speed 8.6 X
Track quality 100.0 %
Test CRC D1A7C801
Copy CRC D1A7C801
Track not present in AccurateRip database
Copy OK
Track 10
Filename C:\EAC\Boely- Musique De Chambre\Boely- Musique De Chambre\10 Mouvement pour Quatuor.wav
Peak level 90.3 %
Extraction speed 9.4 X
Track quality 100.0 %
Test CRC 345CAF55
Copy CRC 345CAF55
Track not present in AccurateRip database
Copy OK
Track 11
Filename C:\EAC\Boely- Musique De Chambre\Boely- Musique De Chambre\11 Trois Melodies, II.wav
Peak level 76.1 %
Extraction speed 7.6 X
Track quality 100.0 %
Test CRC C3344891
Copy CRC C3344891
Track not present in AccurateRip database
Copy OK
Track 12
Filename C:\EAC\Boely- Musique De Chambre\Boely- Musique De Chambre\12 Sextuor, I.wav
Peak level 100.0 %
Extraction speed 9.8 X
Track quality 100.0 %
Test CRC E8FF1BB7
Copy CRC E8FF1BB7
Track not present in AccurateRip database
Copy OK
Track 13
Filename C:\EAC\Boely- Musique De Chambre\Boely- Musique De Chambre\13 Sextuor, II.wav
Peak level 76.1 %
Extraction speed 9.6 X
Track quality 100.0 %
Test CRC 4DB7938F
Copy CRC 4DB7938F
Track not present in AccurateRip database
Copy OK
Track 14
Filename C:\EAC\Boely- Musique De Chambre\Boely- Musique De Chambre\14 Sextuor, III.wav
Peak level 94.1 %
Extraction speed 8.8 X
Track quality 100.0 %
Test CRC 8700CF9E
Copy CRC 8700CF9E
Track not present in AccurateRip database
Copy OK
Track 15
Filename C:\EAC\Boely- Musique De Chambre\Boely- Musique De Chambre\15 Sextuor, IV.wav
Peak level 98.6 %
Extraction speed 10.1 X
Track quality 100.0 %
Test CRC B41FA0ED
Copy CRC B41FA0ED
Track not present in AccurateRip database
Copy OK
Track 16
Filename C:\EAC\Boely- Musique De Chambre\Boely- Musique De Chambre\16 Trois Melodies, III.wav
Peak level 62.6 %
Extraction speed 9.3 X
Track quality 100.0 %
Test CRC 5F65ABF4
Copy CRC 5F65ABF4
Track not present in AccurateRip database
Copy OK
None of the tracks are present in the AccurateRip database
No errors occurred
End of status report
------------------------------------------------------------
Exact Audio Copy V1.0 beta 3 from 29. August 2011
EAC extraction logfile from 7. May 2012, 16:46
Quatuor Mosaiques / Boely: Musique De Chambre
Used drive : PLDS BD-RE DH-8B2SH Adapter: 0 ID: 0
Read mode : Secure
Utilize accurate stream : Yes
Defeat audio cache : Yes
Make use of C2 pointers : No
Read offset correction : 6
Overread into Lead-In and Lead-Out : No
Fill up missing offset samples with silence : Yes
Delete leading and trailing silent blocks : No
Null samples used in CRC calculations : Yes
Used interface : Native Win32 interface for Win NT & 2000
Gap handling : Not detected, thus appended to previous track
Used output format : User Defined Encoder
Selected bitrate : 768 kBit/s
Quality : High
Add ID3 tag : No
Command line compressor : C:\Program Files (x86)\Exact Audio Copy\FLAC\FLAC.EXE
Additional command line options : -6 -V -T "ARTIST=%artist%" -T "TITLE=%title%" -T "ALBUM=%albumtitle%" -T "DATE=%year%" -T "TRACKNUMBER=%tracknr%" -T "GENRE=%genre%" -T "COMMENT=%comment%" -T "BAND=%albuminterpret%" -T "ALBUMARTIST=%albuminterpret%" -T "COMPOSER=%composer%" %haslyrics%--tag-from-file=LYRICS="%lyricsfile%"%haslyrics% -T "DISCNUMBER=%cdnumber%" -T "TOTALDISCS=%totalcds%" -T "TOTALTRACKS=%numtracks%" %hascover%--picture="%coverfile%"%hascover% %source% -o %dest%
TOC of the extracted CD
Track | Start | Length | Start sector | End sector
---------------------------------------------------------
1 | 0:00.00 | 6:57.30 | 0 | 31304
2 | 6:57.30 | 6:59.29 | 31305 | 62758
3 | 13:56.59 | 4:29.57 | 62759 | 82990
4 | 18:26.41 | 6:10.05 | 82991 | 110745
5 | 24:36.46 | 2:19.35 | 110746 | 121205
6 | 26:56.06 | 6:06.47 | 121206 | 148702
7 | 33:02.53 | 6:31.21 | 148703 | 178048
8 | 39:33.74 | 2:30.01 | 178049 | 189299
9 | 42:04.00 | 5:23.66 | 189300 | 213590
10 | 47:27.66 | 7:44.63 | 213591 | 248453
11 | 55:12.54 | 1:45.53 | 248454 | 256381
12 | 56:58.32 | 7:02.31 | 256382 | 288062
13 | 64:00.63 | 4:19.00 | 288063 | 307487
14 | 68:19.63 | 2:18.16 | 307488 | 317853
15 | 70:38.04 | 4:24.01 | 317854 | 337654
16 | 75:02.05 | 2:43.37 | 337655 | 349916
Track 1
Filename C:\EAC\Boely- Musique De Chambre\Boely- Musique De Chambre\01 Trio op. 5, I.wav
Peak level 84.1 %
Extraction speed 2.4 X
Track quality 100.0 %
Test CRC 58937F18
Copy CRC 58937F18
Track not present in AccurateRip database
Copy OK
Track 2
Filename C:\EAC\Boely- Musique De Chambre\Boely- Musique De Chambre\02 Trio op. 5, II.wav
Peak level 62.6 %
Extraction speed 2.8 X
Track quality 100.0 %
Test CRC 1582C073
Copy CRC 1582C073
Track not present in AccurateRip database
Copy OK
Track 3
Filename C:\EAC\Boely- Musique De Chambre\Boely- Musique De Chambre\03 Trio op. 5, III.wav
Peak level 70.9 %
Extraction speed 2.9 X
Track quality 100.0 %
Test CRC FBFC8114
Copy CRC FBFC8114
Track not present in AccurateRip database
Copy OK
Track 4
Filename C:\EAC\Boely- Musique De Chambre\Boely- Musique De Chambre\04 Trio op. 5, IV.wav
Peak level 92.6 %
Extraction speed 3.2 X
Track quality 100.0 %
Test CRC 4CF13AA1
Copy CRC 4CF13AA1
Track not present in AccurateRip database
Copy OK
Track 5
Filename C:\EAC\Boely- Musique De Chambre\Boely- Musique De Chambre\05 Trois Melodies, I.wav
Peak level 56.2 %
Extraction speed 2.9 X
Track quality 100.0 %
Test CRC 35051F26
Copy CRC 35051F26
Track not present in AccurateRip database
Copy OK
Track 6
Filename C:\EAC\Boely- Musique De Chambre\Boely- Musique De Chambre\06 Quatuor op. 27, I.wav
Peak level 83.1 %
Extraction speed 3.5 X
Track quality 100.0 %
Test CRC F07962AA
Copy CRC F07962AA
Track not present in AccurateRip database
Copy OK
Track 7
Filename C:\EAC\Boely- Musique De Chambre\Boely- Musique De Chambre\07 Quatuor op. 27, II.wav
Peak level 83.3 %
Extraction speed 3.8 X
Track quality 100.0 %
Test CRC F4A2C4DA
Copy CRC F4A2C4DA
Track not present in AccurateRip database
Copy OK
Track 8
Filename C:\EAC\Boely- Musique De Chambre\Boely- Musique De Chambre\08 Quatuor op. 27, III.wav
Peak level 84.5 %
Extraction speed 3.4 X
Track quality 100.0 %
Test CRC C759E576
Copy CRC C759E576
Track not present in AccurateRip database
Copy OK
Track 9
Filename C:\EAC\Boely- Musique De Chambre\Boely- Musique De Chambre\09 Quatuor op. 27, IV.wav
Peak level 100.0 %
Extraction speed 3.9 X
Track quality 100.0 %
Test CRC 1DF3129F
Copy CRC 1DF3129F
Track not present in AccurateRip database
Copy OK
Track 10
Filename C:\EAC\Boely- Musique De Chambre\Boely- Musique De Chambre\10 Mouvement pour Quatuor.wav
Peak level 90.3 %
Extraction speed 4.3 X
Track quality 100.0 %
Test CRC 256252B9
Copy CRC 256252B9
Track not present in AccurateRip database
Copy OK
Track 11
Filename C:\EAC\Boely- Musique De Chambre\Boely- Musique De Chambre\11 Trois Melodies, II.wav
Peak level 52.1 %
Extraction speed 3.5 X
Track quality 100.0 %
Test CRC 063926DD
Copy CRC 063926DD
Track not present in AccurateRip database
Copy OK
Track 12
Filename C:\EAC\Boely- Musique De Chambre\Boely- Musique De Chambre\12 Sextuor, I.wav
Peak level 100.0 %
Extraction speed 4.5 X
Track quality 100.0 %
Test CRC 0CD04CDD
Copy CRC 0CD04CDD
Track not present in AccurateRip database
Copy OK
Track 13
Filename C:\EAC\Boely- Musique De Chambre\Boely- Musique De Chambre\13 Sextuor, II.wav
Peak level 74.8 %
Extraction speed 4.4 X
Track quality 100.0 %
Test CRC 18F09EF7
Copy CRC 18F09EF7
Track not present in AccurateRip database
Copy OK
Track 14
Filename C:\EAC\Boely- Musique De Chambre\Boely- Musique De Chambre\14 Sextuor, III.wav
Peak level 94.1 %
Extraction speed 4.0 X
Track quality 100.0 %
Test CRC A6FD93CF
Copy CRC A6FD93CF
Track not present in AccurateRip database
Copy OK
Track 15
Filename C:\EAC\Boely- Musique De Chambre\Boely- Musique De Chambre\15 Sextuor, IV.wav
Peak level 98.6 %
Extraction speed 4.6 X
Track quality 100.0 %
Test CRC ECE180AD
Copy CRC ECE180AD
Track not present in AccurateRip database
Copy OK
Track 16
Filename C:\EAC\Boely- Musique De Chambre\Boely- Musique De Chambre\16 Trois Melodies, III.wav
Peak level 62.6 %
Extraction speed 4.3 X
Track quality 100.0 %
Test CRC 08BFF3B8
Copy CRC 08BFF3B8
Track not present in AccurateRip database
Copy OK
None of the tracks are present in the AccurateRip database
No errors occurred
End of status report



Показать сообщения:    

Текущее время: 05-Дек 23:32

Часовой пояс: UTC + 3


Вы не можете начинать темы
Вы не можете отвечать на сообщения
Вы не можете редактировать свои сообщения
Вы не можете удалять свои сообщения
Вы не можете голосовать в опросах
Вы не можете прикреплять файлы к сообщениям
Вы не можете скачивать файлы