Хатха йога. Алексей Лиханов. Начальный уровень [2016, йога, HDRip, RUS] (Видеоурок)


Статистика раздачи [Обновить пиров]
Размер:  1.67 GB   |    Зарегистрирован:  10 месяцев 10 дней   |    Скачан:  0 раз

Полного источника не было: Никогда

Личеров:  8  [  0 KB/s  ]   Подробная статистика пиров
 
   
 
 
 

[Цитировать]

Хатха йога. Алексей Лиханов. Начальный уровень
Страна: Россия
Тематика: йога
Тип раздаваемого материала: Видеоурок
Продолжительность: 00:45:19
Год выпуска: 2016
orenyoga
Язык: Русский
Перевод: Не требуется
Описание: Комплекс упражнений начального уровня. С помощью предложенных упражнений вы улучшите гибкость и подвижность позвоночника, тазобедренных и плечевых суставов, задней поверхности ног, избавитесь от мышечных зажимов и жесткости сухожилий, обретете гибкие и стройные ноги и руки.
Содержание: Суставная разминка, комплекс Сурья Намаскар "Приветствие Солнцу", Базовый комплекс асан.
Качество: HDRip
Формат: MP4
Видео кодек: AVC
Аудио кодек: AAC
Видео: AVC, 1920х1080 pixels (16:9), 5070Kbps, 29.00fps
Аудио: AAC, 192 Kbps, 48.0 KHz, 2 ch

MediaInfo

Format : MPEG-4
File size : 1.67 GiB
Duration : 45mn 19s
Video
Format : AVC
Format/Info : Advanced Video Codec
Duration : 45mn 19s
Bit rate : 5 070 Kbps
Width : 1 920 pixels
Height : 1 080 pixels
Display aspect ratio : 16:9
Frame rate mode : Constant
Frame rate : 29.970 (30000/1001) fps
Standard : NTSC
Color space : YUV
Chroma subsampling : 4:2:0
Bit depth : 8 bits
Scan type : Progressive
Bits/(Pixel*Frame) : 0.082
Stream size : 1.61 GiB (96%)
Audio
Format : AAC
Format/Info : Advanced Audio Codec
Format profile : LC
Codec ID : 40
Duration : 45mn 19s
Bit rate mode : Constant
Bit rate : 192 Kbps
Channel(s)_Original : 2 channels
Sampling rate : 48.0 KHz
Frame rate : 46.875 fps (1024 spf)
Compression mode : Lossy
Stream size : 62.3 MiB (4%)
[teatrix.ru].t14407.torrent 
Торрент: Зарегистрирован [ 2016-01-24 18:40 ] · A4511CF09BBC7FC71E7D7ABBD360A3765E1D0EAF

Скачать .torrent

Скачать

17 KB

Статус: проверено
Скачан: 0 раз
Размер: 1.67 GB
terms.php



Быстрый ответ

Имя:

      
Для отправки сообщений необходимо включить JavaScript
Показать сообщения:    

Текущее время: 04-Дек 13:15

Часовой пояс: UTC + 3


Вы можете начинать темы
Вы можете отвечать на сообщения
Вы не можете редактировать свои сообщения
Вы не можете удалять свои сообщения
Вы не можете голосовать в опросах
Вы не можете прикреплять файлы к сообщениям
Вы можете скачивать файлы