(Classical/Piano/Solo) Franz Liszt: Mazeppa (Patrick Scheyder) [Alpha] - 2008, FLAC (tracks+.cue) lossless


 

[Цитировать]

Patrick Scheyder — Franz Liszt: Mazeppa-Classical/Piano/Solo • Alpha • ALPHA119 • 2008 • lossless • FLAC • tracks+.cue • 00:59:48 • what.cd • scans-01. Harmonies poétiques et religieuses - Funérailles (LW A158,7)
02. Etudes d'Exécution Transcendante - Paysage (LW A172,3)
03. Etudes d'Exécution Transcendante - Mazeppa (LW A172,4)
04. Six chants polonais - Frühling (LW A193,3)
05. Six chants polonais - Das Ringlein; Bacchanal (LW A193,4-5)
06. Années de Pèlerinage, 2e année (Italie) - Sposalizio (LW A55,1)
07. Années de Pèlerinage, 2e année (Italie) - Il Penseroso (LW A55,2)
08. Liebesträume, 3 notturnos - Seliger Tod (LW A103,2)
09. Liebesträume, 3 notturnos - O lieb' so lang du lieben kannst (LW A103,3)
10. [Scheyder] Improvisation
-Patrick Scheyder - piano (Ignace Pleyel, 1846)
Recorded: en aout 2006 & fevrier 2007 a Bellac, Theatre du Cloitre-

cue

REM GENRE Classical
REM DATE 2008
REM DISCID 950E040A
REM COMMENT "ExactAudioCopy v1.0b3"
PERFORMER "Patrick Scheyder"
TITLE "Mazeppa"
FILE "01 Harmonies poйtiques et religieuses - Funйrailles (LW A158,7).wav" WAVE
TRACK 01 AUDIO
TITLE "Harmonies poйtiques et religieuses - Funйrailles (LW A158,7)"
PERFORMER "Patrick Scheyder"
INDEX 01 00:00:00
TRACK 02 AUDIO
TITLE "Etudes d'Exйcution Transcendante - Paysage (LW A172,3)"
PERFORMER "Patrick Scheyder"
INDEX 00 11:45:66
FILE "02 Etudes d'Exйcution Transcendante - Paysage (LW A172,3).wav" WAVE
INDEX 01 00:00:00
TRACK 03 AUDIO
TITLE "Etudes d'Exйcution Transcendante - Mazeppa (LW A172,4)"
PERFORMER "Patrick Scheyder"
INDEX 00 04:24:46
FILE "03 Etudes d'Exйcution Transcendante - Mazeppa (LW A172,4).wav" WAVE
INDEX 01 00:00:00
TRACK 04 AUDIO
TITLE "Six chants polonais - Frьhling (LW A193,3)"
PERFORMER "Patrick Scheyder"
INDEX 00 09:07:65
FILE "04 Six chants polonais - Frьhling (LW A193,3).wav" WAVE
INDEX 01 00:00:00
TRACK 05 AUDIO
TITLE "Six chants polonais - Das Ringlein; Bacchanal (LW A193,4-5)"
PERFORMER "Patrick Scheyder"
INDEX 00 02:15:17
FILE "05 Six chants polonais - Das Ringlein; Bacchanal (LW A193,4-5).wav" WAVE
INDEX 01 00:00:00
TRACK 06 AUDIO
TITLE "Annйes de Pиlerinage, 2e annйe (Italie) - Sposalizio (LW A55,1)"
PERFORMER "Patrick Scheyder"
INDEX 00 04:58:69
FILE "06 Annйes de Pиlerinage, 2e annйe (Italie) - Sposalizio (LW A55,1).wav" WAVE
INDEX 01 00:00:00
TRACK 07 AUDIO
TITLE "Annйes de Pиlerinage, 2e annйe (Italie) - Il Penseroso (LW A55,2)"
PERFORMER "Patrick Scheyder"
INDEX 00 08:29:71
FILE "07 Annйes de Pиlerinage, 2e annйe (Italie) - Il Penseroso (LW A55,2).wav" WAVE
INDEX 01 00:00:00
TRACK 08 AUDIO
TITLE "Liebestrдume, 3 notturnos - Seliger Tod (LW A103,2)"
PERFORMER "Patrick Scheyder"
INDEX 00 03:57:44
FILE "08 Liebestrдume, 3 notturnos - Seliger Tod (LW A103,2).wav" WAVE
INDEX 01 00:00:00
TRACK 09 AUDIO
TITLE "Liebestrдume, 3 notturnos - O lieb' so lang du lieben kannst (LW A103,3)"
PERFORMER "Patrick Scheyder"
INDEX 00 04:57:00
FILE "09 Liebestrдume, 3 notturnos - O lieb' so lang du lieben kannst (LW A103,3).wav" WAVE
INDEX 01 00:00:00
TRACK 10 AUDIO
TITLE "[Scheyder] Improvisation"
PERFORMER "Patrick Scheyder"
INDEX 00 05:10:17
FILE "10 [Scheyder] Improvisation.wav" WAVE
INDEX 01 00:00:00

EAC

Exact Audio Copy V1.0 beta 3 from 29. August 2011
EAC extraction logfile from 11. May 2015, 20:07
Patrick Scheyder / Mazeppa
Used drive : hp CDDVDW TS-L633N Adapter: 1 ID: 0
Read mode : Secure
Utilize accurate stream : Yes
Defeat audio cache : Yes
Make use of C2 pointers : No
Read offset correction : 6
Overread into Lead-In and Lead-Out : No
Fill up missing offset samples with silence : Yes
Delete leading and trailing silent blocks : No
Null samples used in CRC calculations : Yes
Used interface : Native Win32 interface for Win NT & 2000
Gap handling : Appended to previous track
Used output format : User Defined Encoder
Selected bitrate : 1024 kBit/s
Quality : High
Add ID3 tag : No
Command line compressor : C:\Program Files (x86)\Exact Audio Copy\Flac\flac.exe
Additional command line options : -8 -V -T "ARTIST=%artist%" -T "TITLE=%title%" -T "ALBUM=%albumtitle%" -T "DATE=%year%" -T "TRACKNUMBER=%tracknr%" -T "GENRE=%genre%" -T "PERFORMER=%albuminterpret%" -T "COMPOSER=%composer%" %haslyrics%--tag-from-file=LYRICS="%lyricsfile%"%haslyrics% -T "ALBUMARTIST=%albumartist%" -T "DISCNUMBER=%cdnumber%" -T "TOTALDISCS=%totalcds%" -T "TOTALTRACKS=%numtracks%" -T "COMMENT=%comment%" %source% -o %dest%
TOC of the extracted CD
Track | Start | Length | Start sector | End sector
---------------------------------------------------------
1 | 0:00.00 | 11:47.66 | 0 | 53090
2 | 11:47.66 | 4:26.46 | 53091 | 73086
3 | 16:14.37 | 9:09.65 | 73087 | 114326
4 | 25:24.27 | 2:17.17 | 114327 | 124618
5 | 27:41.44 | 5:00.69 | 124619 | 147187
6 | 32:42.38 | 8:31.71 | 147188 | 185583
7 | 41:14.34 | 3:59.44 | 185584 | 203552
8 | 45:14.03 | 4:59.00 | 203553 | 225977
9 | 50:13.03 | 5:12.17 | 225978 | 249394
10 | 55:25.20 | 4:23.23 | 249395 | 269142
Track 1
Filename F:\MIMIC\Liszt - Mazeppa - Patrick Scheyder\01 Harmonies poétiques et religieuses - Funérailles (LW A158,7).wav
Pre-gap length 0:00:02.00
Peak level 85.3 %
Extraction speed 1.4 X
Track quality 100.0 %
Test CRC C544318A
Copy CRC C544318A
Accurately ripped (confidence 1) [1629DA6F] (AR v2)
Copy OK
Track 2
Filename F:\MIMIC\Liszt - Mazeppa - Patrick Scheyder\02 Etudes d'Exécution Transcendante - Paysage (LW A172,3).wav
Pre-gap length 0:00:02.00
Peak level 52.4 %
Extraction speed 1.5 X
Track quality 100.0 %
Test CRC 83FB6F39
Copy CRC 83FB6F39
Accurately ripped (confidence 1) [48A944DF] (AR v2)
Copy OK
Track 3
Filename F:\MIMIC\Liszt - Mazeppa - Patrick Scheyder\03 Etudes d'Exécution Transcendante - Mazeppa (LW A172,4).wav
Pre-gap length 0:00:02.00
Peak level 81.3 %
Extraction speed 1.8 X
Track quality 100.0 %
Test CRC 39F309D3
Copy CRC 39F309D3
Accurately ripped (confidence 1) [DED25C88] (AR v2)
Copy OK
Track 4
Filename F:\MIMIC\Liszt - Mazeppa - Patrick Scheyder\04 Six chants polonais - Frühling (LW A193,3).wav
Pre-gap length 0:00:02.00
Peak level 27.0 %
Extraction speed 1.6 X
Track quality 100.0 %
Test CRC 4447AA58
Copy CRC 4447AA58
Accurately ripped (confidence 1) [7D759414] (AR v2)
Copy OK
Track 5
Filename F:\MIMIC\Liszt - Mazeppa - Patrick Scheyder\05 Six chants polonais - Das Ringlein; Bacchanal (LW A193,4-5).wav
Pre-gap length 0:00:02.00
Peak level 65.9 %
Extraction speed 1.9 X
Track quality 100.0 %
Test CRC 6A780CEF
Copy CRC 6A780CEF
Accurately ripped (confidence 1) [AE3F70F1] (AR v2)
Copy OK
Track 6
Filename F:\MIMIC\Liszt - Mazeppa - Patrick Scheyder\06 Années de Pèlerinage, 2e année (Italie) - Sposalizio (LW A55,1).wav
Pre-gap length 0:00:02.00
Peak level 67.7 %
Extraction speed 2.0 X
Track quality 99.9 %
Test CRC A08CE0D7
Copy CRC A08CE0D7
Accurately ripped (confidence 1) [14024037] (AR v2)
Copy OK
Track 7
Filename F:\MIMIC\Liszt - Mazeppa - Patrick Scheyder\07 Années de Pèlerinage, 2e année (Italie) - Il Penseroso (LW A55,2).wav
Pre-gap length 0:00:02.00
Peak level 47.9 %
Extraction speed 2.0 X
Track quality 100.0 %
Test CRC 9606F855
Copy CRC 9606F855
Accurately ripped (confidence 1) [2C428165] (AR v2)
Copy OK
Track 8
Filename F:\MIMIC\Liszt - Mazeppa - Patrick Scheyder\08 Liebesträume, 3 notturnos - Seliger Tod (LW A103,2).wav
Pre-gap length 0:00:02.00
Peak level 68.3 %
Extraction speed 2.2 X
Track quality 100.0 %
Test CRC 467BD205
Copy CRC 467BD205
Accurately ripped (confidence 1) [2840A8B5] (AR v2)
Copy OK
Track 9
Filename F:\MIMIC\Liszt - Mazeppa - Patrick Scheyder\09 Liebesträume, 3 notturnos - O lieb' so lang du lieben kannst (LW A103,3).wav
Pre-gap length 0:00:02.00
Peak level 37.0 %
Extraction speed 2.2 X
Track quality 100.0 %
Test CRC 8C63358E
Copy CRC 8C63358E
Accurately ripped (confidence 1) [642DC3A3] (AR v2)
Copy OK
Track 10
Filename F:\MIMIC\Liszt - Mazeppa - Patrick Scheyder\10 [Scheyder] Improvisation.wav
Pre-gap length 0:00:02.00
Peak level 83.5 %
Extraction speed 2.0 X
Track quality 99.9 %
Test CRC 0B408FA5
Copy CRC 0B408FA5
Accurately ripped (confidence 1) [DC0F709B] (AR v2)
Copy OK
All tracks accurately ripped
No errors occurred
End of status report
==== Log checksum 8FE0E6128F1CD42AD07F3F841EA7631DB5C0AD51E23731D6653AF927ADD8C79A ====



Показать сообщения:    

Текущее время: 07-Дек 21:17

Часовой пояс: UTC + 3


Вы не можете начинать темы
Вы не можете отвечать на сообщения
Вы не можете редактировать свои сообщения
Вы не можете удалять свои сообщения
Вы не можете голосовать в опросах
Вы не можете прикреплять файлы к сообщениям
Вы не можете скачивать файлы