(Classical, Orchestral, Symphonic, Modern, Concerto) Gershwin: Second Rhapsody - Piano Concerto in F, Porgy and Bess: Symphonic Suite - 1995, FLAC (image+.cue) lossless


Статистика раздачи [Обновить пиров]
Размер:  303 MB   |    Зарегистрирован:  10 месяцев 11 дней   |    Скачан:  0 раз

Полного источника не было: Никогда

Личеров:  3  [  0 KB/s  ]   Подробная статистика пиров
 
   
 
 
 

[Цитировать]

Gershwin: Second Rhapsody - Piano Concerto in F, Porgy and Bess: Symphonic Suite
Жанр: Classical, Orchestral, Symphonic, Modern, Concerto, Rhapsody
Страна-производитель диска: Holland
Год издания диска: 1995
Лейбл: Virgin Classics
Номер по каталогу: VM 561243-2
Дата записи: 1995
Аудиокодек: FLAC
Тип рипа: image+.cue
Битрейт аудио: lossless
Продолжительность: 01:12:14
Источник: somewhere web
Наличие сканов в содержимом раздачи: да
Треклист:
Concerto in F, for piano & orchestra
01. Allegro (12:24)
02. Adagio - Andante con moto (13:58)
03. Allegro agitato (06:43)
04. Porgy and Bess- A Symphonic Picture (arr. Robert Russell Bennett) (25:40)
05. Second Rhapsody, for piano & orchestra (-Rhapsody in Rivets-) (13:30)
Исполнители:
Composer: George Gershwin (1898-1937)
Performer: Wayne Marshall - piano and direction
Ensemble: Aalborg Symphony Orchestra

Лог создания рипа

Exact Audio Copy V1.0 beta 3 from 29. August 2011
EAC extraction logfile from 21. November 2013, 16:22
Wayne Marshall / Gershwin - Piano Concerto, Porgy & Bess suite, Second Rhapsody - Wayne Marshall
Used drive : TSSTcorpCDDVDW SH-222BB Adapter: 2 ID: 1
Read mode : SecureUtilize accurate stream : YesDefeat audio cache : YesMake use of C2 pointers : No
Read offset correction : 6Overread into Lead-In and Lead-Out : NoFill up missing offset samples with silence : YesDelete leading and trailing silent blocks : NoNull samples used in CRC calculations : YesUsed interface : Native Win32 interface for Win NT & 2000
Used output format : User Defined EncoderSelected bitrate : 1024 kBit/sQuality : HighAdd ID3 tag : NoCommand line compressor : C:\Program Files\Exact Audio Copy\Flac\flac.exeAdditional command line options : -8 -V -T "TITLE=%title%" -T "ARTIST=%artist%" -T "ALBUMARTIST=%albumartist%" -T "ALBUM=%albumtitle%" -T "DATE=%year%" -T "TRACKNUMBER=%tracknr%" -T "TRACKTOTAL=%numtracks%" -T "GENRE=%genre%" -T "COMMENT=%comment%" -T "PERFORMER=%albuminterpret%" -T "COMPOSER=%composer%" %source% -o %dest%
TOC of the extracted CD
Track | Start | Length | Start sector | End sector --------------------------------------------------------- 1 | 0:00.00 | 12:24.33 | 0 | 55832 2 | 12:24.33 | 13:58.30 | 55833 | 118712 3 | 26:22.63 | 6:42.72 | 118713 | 148934 4 | 33:05.60 | 25:38.60 | 148935 | 264344 5 | 58:44.45 | 13:29.68 | 264345 | 325087
Range status and errors
Selected range
Filename G:\Ripped general\[2611] Gershwin – Piano Concerto, Porgy & Bess suite, Second Rhapsody – Wayne Marshall\Gershwin - Piano Concerto, Porgy & Bess suite, Second Rhapsody - Wayne Marshall.wav
Peak level 100.0 % Extraction speed 8.1 X Range quality 100.0 % Test CRC DA905A38 Copy CRC DA905A38 Copy OK
No errors occurred
AccurateRip summary
Track 1 accurately ripped (confidence 1) [11B40386] (AR v1)Track 2 accurately ripped (confidence 1) [BCD8F41A] (AR v1)Track 3 accurately ripped (confidence 1) [9A4502FC] (AR v1)Track 4 accurately ripped (confidence 1) [E5F543A6] (AR v1)Track 5 accurately ripped (confidence 1) [1D3C216B] (AR v1)
All tracks accurately ripped
End of status report

Содержание индексной карты (.CUE)

REM GENRE ConcertoREM DATE 1995REM DISCID 4E10EE05REM COMMENT "ExactAudioCopy v1.0b3"PERFORMER "Wayne Marshall"TITLE "Gershwin - Piano Concerto, Porgy & Bess suite, Second Rhapsody - Wayne Marshall"FILE "Gershwin - Piano Concerto, Porgy & Bess suite, Second Rhapsody - Wayne Marshall.flac" WAVE TRACK 01 AUDIO TITLE "Concerto in F, for piano & orchestra- I- Allegro" PERFORMER "Wayne Marshall" INDEX 01 00:00:00 TRACK 02 AUDIO TITLE "Concerto in F, for piano & orchestra- II- Adagio - Andante con moto" PERFORMER "Wayne Marshall" INDEX 01 12:24:33 TRACK 03 AUDIO TITLE "Concerto in F, for piano & orchestra- III- Allegro agitato" PERFORMER "Wayne Marshall" INDEX 01 26:22:63 TRACK 04 AUDIO TITLE "Porgy and Bess- A Symphonic Picture (arr. Robert Russell Bennett)" PERFORMER "Wayne Marshall" INDEX 00 33:02:13 INDEX 01 33:05:60 TRACK 05 AUDIO TITLE "Second Rhapsody, for piano & orchestra (-Rhapsody in Rivets-)" PERFORMER "Wayne Marshall" INDEX 00 58:39:40 INDEX 01 58:44:45

Лог проверки качества

-----------------------
DON'T MODIFY THIS FILE
-----------------------
PERFORMER: auCDtect Task Manager, ver. 1.5.1RC6 build 1.5.1.7Copyright (c) 2008-2010 y-soft. All rights reservedhttp://y-soft.org
ANALYZER: auCDtect: CD records authenticity detector, version 0.8.2Copyright (c) 2004 Oleg Berngardt. All rights reserved.Copyright (c) 2004 Alexander Djourik. All rights reserved.
FILE: Gershwin - Piano Concerto, Porgy & Bess suite, Second Rhapsody - Wayne Marshall.flac Size: 307580939 Hash: 1F854E919796EB8CC2F1300530BC6BC9 Accuracy: -m0 Conclusion: CDDA 100% Signature: 67842D4A8C607A091F9F43DA6398CDF6E61D5AFE
[teatrix.ru].t14412.torrent 
Торрент: Зарегистрирован [ 2016-01-24 22:45 ] · 91E8430CA8FC474E0B38017C9A2ADD2FE081D09A

Скачать .torrent

Скачать

13 KB

Статус: проверено
Скачан: 0 раз
Размер: 303 MB
terms.php



Быстрый ответ

Имя:

      
Для отправки сообщений необходимо включить JavaScript
Показать сообщения:    

Текущее время: 05-Дек 05:28

Часовой пояс: UTC + 3


Вы можете начинать темы
Вы можете отвечать на сообщения
Вы не можете редактировать свои сообщения
Вы не можете удалять свои сообщения
Вы не можете голосовать в опросах
Вы не можете прикреплять файлы к сообщениям
Вы можете скачивать файлы