(Symphony) Mozart - Symphonies 38-41 - Scottish Chamber Orchestra, Ch. Mackerras - 2008, APE (image+.cue) lossless


 

[Цитировать]

Wolfgang Amadeus Mozart - Symphonies 38-41 - Scottish Chamber Orchestra, Ch. Mackerras
Жанр: Symphony
Страна-производитель диска: Great Britain
Год издания диска: 2008
Издатель (лейбл): Linn Records
Номер по каталогу: CKD 308
Дата записи: 2007
Аудиокодек: APE
Тип рипа: image+.cue
Битрейт аудио: lossless
Продолжительность: 2:19:20
Источник: скачано с web
Наличие сканов в содержимом раздачи: да
Треклист:
CD 1
[01]-[04] Symphony No.38 in D (Prague) K.504
[05]-[08] Symphony No.39 in E flat K.543
CD 2
[01]-[04] Symphony No.40 in G minor K.550
[05]-[08] Symphony No.41 in C (Jupiter) K.551
Исполнители:
Scottish Chamber Orchestra
Sir Charles Mackerras

Лог создания рипа

CD 1

Exact Audio Copy V0.99 prebeta 4 from 23. January 2008
EAC extraction logfile from 24. June 2008, 16:56
Mackerras - Scottish CO / Mozart - Symphonies 38-41 (CD1)
Used drive : HL-DT-STDVDRAM GSA-H42L Adapter: 0 ID: 0
Read mode : Secure
Utilize accurate stream : Yes
Defeat audio cache : No
Make use of C2 pointers : No
Read offset correction : 667
Overread into Lead-In and Lead-Out : No
Fill up missing offset samples with silence : Yes
Delete leading and trailing silent blocks : No
Null samples used in CRC calculations : No
Used interface : Native Win32 interface for Win NT & 2000
Used output format : Internal WAV Routines
Sample format : 44.100 Hz; 16 Bit; Stereo
TOC of the extracted CD
Track | Start | Length | Start sector | End sector
---------------------------------------------------------
1 | 0:00.00 | 17:44.25 | 0 | 79824
2 | 17:44.25 | 11:18.10 | 79825 | 130684
3 | 29:02.35 | 7:45.64 | 130685 | 165623
4 | 36:48.24 | 9:50.14 | 165624 | 209887
5 | 46:38.38 | 8:02.08 | 209888 | 246045
6 | 54:40.46 | 4:21.49 | 246046 | 265669
7 | 59:02.20 | 7:49.51 | 265670 | 300895
Range status and errors
Selected range
Filename C:\WAVE\Mozart - Symphonies 38-41 (CD1).wav
Peak level 100.0 %
Range quality 100.0 %
Copy CRC 84FB8CFB
Copy OK
No errors occurred
End of status report

CD 2

Exact Audio Copy V0.99 prebeta 4 from 23. January 2008
EAC extraction logfile from 24. June 2008, 17:42
Mackerras - Scottish CO / Mozart - Symphonies 38-41 (CD2)
Used drive : HL-DT-STDVDRAM GSA-H42L Adapter: 0 ID: 0
Read mode : Secure
Utilize accurate stream : Yes
Defeat audio cache : No
Make use of C2 pointers : No
Read offset correction : 667
Overread into Lead-In and Lead-Out : No
Fill up missing offset samples with silence : Yes
Delete leading and trailing silent blocks : No
Null samples used in CRC calculations : No
Used interface : Native Win32 interface for Win NT & 2000
Used output format : Internal WAV Routines
Sample format : 44.100 Hz; 16 Bit; Stereo
TOC of the extracted CD
Track | Start | Length | Start sector | End sector
---------------------------------------------------------
1 | 0:00.00 | 7:07.04 | 0 | 32028
2 | 7:07.04 | 13:25.17 | 32029 | 92420
3 | 20:32.21 | 4:03.30 | 92421 | 110675
4 | 24:35.51 | 9:26.61 | 110676 | 153186
5 | 34:02.37 | 11:28.36 | 153187 | 204822
6 | 45:30.73 | 10:27.11 | 204823 | 251858
7 | 55:58.09 | 5:03.24 | 251859 | 274607
8 | 61:01.33 | 11:30.20 | 274608 | 326377
Range status and errors
Selected range
Filename C:\WAVE\Mozart - Symphonies 38-41 (CD2).wav
Peak level 98.9 %
Range quality 99.9 %
Copy CRC 1EAFCDE4
Copy OK
No errors occurred
End of status report

Лог проверки качества

CD 1

AUDIOCHECKER v2.0 beta (build 457) - by Dester - opdester@freemail.hu
~~~~~~~~~~~~~~~~~~~~~~~~~~~~~~~~~~
-=== DO NOT EDIT THIS FILE! ===-
Path: ...\CD1
1 -=- Mozart - Symphonies 38-41 (CD1).ape -=- CDDA (100%)
248372452

CD 2

AUDIOCHECKER v2.0 beta (build 457) - by Dester - opdester@freemail.hu
~~~~~~~~~~~~~~~~~~~~~~~~~~~~~~~~~~
-=== DO NOT EDIT THIS FILE! ===-
Path: ...\CD2
1 -=- Mozart - Symphonies 38-41 (CD2).ape -=- CDDA (100%)
247999716



Показать сообщения:    

Текущее время: 06-Дек 20:59

Часовой пояс: UTC + 3


Вы не можете начинать темы
Вы не можете отвечать на сообщения
Вы не можете редактировать свои сообщения
Вы не можете удалять свои сообщения
Вы не можете голосовать в опросах
Вы не можете прикреплять файлы к сообщениям
Вы не можете скачивать файлы