Поминальная молитва (Виталий Иванов, Василий Конопатин) [2011 г., драма, WEB-DLRip] Пензенский областной драматический театр им. А. В. Луначарского


 

[Цитировать]

Поминальная молитва Название театра: Пензенский областной драматический театр им. А. В. Луначарского.
Год выпуска: 2011.
Жанр: драма.
Продолжительность: 02:16:15.
Режиссер: заслуженный деятель искусств России Виталий Иванов, заслуженный артист России Василий Конопатин.
Действующие лица и исполнители:
Тевье-молочник - народный артист России Михаил Каплан,
Голда, его жена — заслуженная артистка России Галина Репная,
Цейтл - Альбина Смелова,
Годл - Ольга Полякова,
Хава - Анна Тулупова,
Шпринца - Юлия Кошкина,
Бейлке - Екатерина Гузеева,
Мотл-портной - Владислав Матюкин,
Перчик-студент - Альберт Ибраев,
Федор-писарь - Павел Тачков,
Менахем-Мендл, родственник Тевье, человек без определенных занятий - заслуженный артист России Сергей Казаков,
Степан-плотник - заслуженный артист России Генрих Вавилов,
Лейзер-Вольф, мясник - заслуженный артист России Николай Шевкуненко,
Ребе - заслуженный артист России Олег Зеленченко,
Поп - Евгений Панов,
Урядник - заслуженный артист России Василий Конопатин,
Войцек-трактирщик - Григорий Мазур,
Мать Менахема - заслуженная артистка России Наталья Старовойт,
Йоселе - Анатолий Громов.
О спектакле:
Драма по мотивам произведений Шолом-Алейхема.
В маленькой деревне Анатовке дружно жили русские, украинцы, евреи. Вместе трудились, вместе радовались, вместе горевали, играли свадьбы, провожали в последний путь. И никак не могли понять, за что Бог посылает им все новые и новые испытания. Ведь не за то же, что молитвы читают они на разных языках и славят Господа в разные дни?
Пьеса Григория Горина вот уже третье десятилетие с успехом идет во многих театрах страны. В Пензе премьера «Поминальной молитвы» состоялась в бенефис народного артиста России Михаила Каплана. Поставил ее режиссер Малого театра, заслуженный деятель искусств России Виталий Иванов. Спектакль этот сразу же прочно и надолго завоевал сердца пензенской публики. Трижды его показывали в Москве — в 2003 и 2005 годах на сцене филиала Малого театра на Ордынке, а в марте 2005 года — на Всероссийском фестивале «Театр Григория Горина», посвященном 65-летию со дня рождения драматурга. Московская критика тогда единодушно признала версию пензенского театра одной из лучших в стране.
После пожара спектакль более чем на три года исчез из репертуара. И вот в новом здании он вернулся к зрителям...

Дополнительная информация:
Страна: Россия .
Подготовлено студией Вячеслава Борисова.
Автор: Григорий Горин.
Режиссер-постановщик: заслуженный деятель искусств России Виталий Иванов.
Режиссер: заслуженный артист России Василий Конопатин.
Художник-постановщик: Любовь Цыбарева.
Хореограф: Наталья Кинге.
Художественный руководитель театра: заслуженный артист России Сергей Казаков.
Премьера состоялась 8 декабря 2002 года.
Спектакль возобновлен: 29 апреля 2011 года.
Последний показ спектакля состоялся 16 марта 2012 года.

О спектакле.
Релиз
Рип sharky.

Качество видео:...WEB-DLRip
Формат:.................AVI
Видео:..704x464 (1.52:1), 25 fps, XviD build 47 ~1387 kbps avg, 0.17 bit/pixel
Аудио:..44.100 kHz, MPEG Layer 3, 2 ch, ~128.00 kbps avg

Отчет MI

Общее
Полное имя : Pominal'naya.molitva_Penzenskij.ODT.im.Lunacharskogo.2011.XviD.WEB-DLRip.fenixclub.avi
Format : AVI
Format/Info : Audio Video Interleave
File size : 1.45 GiB
Duration : 2h 16mn
Overall bit rate : 1 526 Kbps
Writing application : VirtualDubMod 1.5.10.2 (build 2540/release)
Writing library : VirtualDubMod build 2540/release
Video
ID : 0
Format : MPEG-4 Visual
Format profile : Advanced Simple@L5
Format settings, BVOP : 1
Format settings, QPel : No
Format settings, GMC : No warppoints
Format settings, Matrix : Default (H.263)
Codec ID : XVID
Codec ID/Hint : XviD
Duration : 2h 16mn
Bit rate : 1 388 Kbps
Width : 704 pixels
Height : 464 pixels
Display aspect ratio : 3:2
Frame rate : 25.000 fps
Color space : YUV
Chroma subsampling : 4:2:0
Bit depth : 8 bits
Scan type : Progressive
Compression mode : Lossy
Bits/(Pixel*Frame) : 0.170
Stream size : 1.32 GiB (91%)
Writing library : XviD 1.2.0.dev47 (UTC 2006-11-01)
Audio
ID : 1
Format : MPEG Audio
Format version : Version 1
Format profile : Layer 3
Codec ID : 55
Codec ID/Hint : MP3
Duration : 2h 16mn
Bit rate mode : Constant
Bit rate : 128 Kbps
Channel(s) : 2 channels
Sampling rate : 44.1 KHz
Compression mode : Lossy
Stream size : 125 MiB (8%)
Alignment : Split accross interleaves
Interleave, duration : 40 ms (1.00 video frame)
Interleave, preload duratio : 500 ms
Writing library : LAME3.97
Encoding settings : -m s -V 4 -q 2 -lowpass 17 -b 128

Скриншоты


Альтернативный хост





Показать сообщения:    

Текущее время: 11-Дек 11:08

Часовой пояс: UTC + 3


Вы не можете начинать темы
Вы не можете отвечать на сообщения
Вы не можете редактировать свои сообщения
Вы не можете удалять свои сообщения
Вы не можете голосовать в опросах
Вы не можете прикреплять файлы к сообщениям
Вы не можете скачивать файлы