(Classical/Orchestral) Prokofiev / Прокофьев: Classical Symphony / Классическая симфония; Lt. Kije Suite / Поручик Киже; Love for Three Oranges / Любовь к трём апельсинам (Eugene Ormandy) - 1989, FLAC (tracks+.cue) lossless


 

[Цитировать]

Philadelphia Orchestra • Eugene Ormandy — Sergei Prokofiev: Classical Symphony; Lt. Kije Suite; Love for Three Oranges-Classical/Orchestral • CBS Records • MBK 39783 • 1989 • lossless • FLAC • tracks+.cue • 00:49:58 • what.cd-01-04. Classical Symphony op.25
05-09. Lieutenant Kijé Suite op.60
10-15. The Love for Three Oranges Suite op.33A
-Philadelphia Orchestra || Eugene Ormandy - conductor-

cue

REM GENRE Classical
REM DATE 1989
REM DISCID C30BB60F
REM COMMENT "ExactAudioCopy v1.0b4"
PERFORMER "Philadelphia Orchestra - Eugene Ormandy"
TITLE "Prokofiev"
FILE "01. Classical Symphony op.25 - I Allegro con brio.wav" WAVE
TRACK 01 AUDIO
TITLE "Classical Symphony op.25 - I Allegro con brio"
PERFORMER "Philadelphia Orchestra - Eugene Ormandy"
INDEX 01 00:00:00
TRACK 02 AUDIO
TITLE "Classical Symphony op.25 - II Larghetto"
PERFORMER "Philadelphia Orchestra - Eugene Ormandy"
INDEX 00 03:47:22
FILE "02. Classical Symphony op.25 - II Larghetto.wav" WAVE
INDEX 01 00:00:00
TRACK 03 AUDIO
TITLE "Classical Symphony op.25 - III Gavotte"
PERFORMER "Philadelphia Orchestra - Eugene Ormandy"
INDEX 00 03:21:72
FILE "03. Classical Symphony op.25 - III Gavotte.wav" WAVE
INDEX 01 00:00:00
TRACK 04 AUDIO
TITLE "Classical Symphony op.25 - IV Finale"
PERFORMER "Philadelphia Orchestra - Eugene Ormandy"
INDEX 00 01:38:02
FILE "04. Classical Symphony op.25 - IV Finale.wav" WAVE
INDEX 01 00:00:00
TRACK 05 AUDIO
TITLE "Lieutenant Kijй Suite op.60 - I The Birth of Kijй"
PERFORMER "Philadelphia Orchestra - Eugene Ormandy"
INDEX 00 04:06:50
FILE "05. Lieutenant Kijй Suite op.60 - I The Birth of Kijй.wav" WAVE
INDEX 01 00:00:00
TRACK 06 AUDIO
TITLE "Lieutenant Kijй Suite op.60 - II Romance"
PERFORMER "Philadelphia Orchestra - Eugene Ormandy"
INDEX 00 04:34:70
FILE "06. Lieutenant Kijй Suite op.60 - II Romance.wav" WAVE
INDEX 01 00:00:00
TRACK 07 AUDIO
TITLE "Lieutenant Kijй Suite op.60 - III The Wedding of Kijй"
PERFORMER "Philadelphia Orchestra - Eugene Ormandy"
INDEX 00 04:15:70
FILE "07. Lieutenant Kijй Suite op.60 - III The Wedding of Kijй.wav" WAVE
INDEX 01 00:00:00
TRACK 08 AUDIO
TITLE "Lieutenant Kijй Suite op.60 - IV Troika"
PERFORMER "Philadelphia Orchestra - Eugene Ormandy"
INDEX 00 02:43:63
FILE "08. Lieutenant Kijй Suite op.60 - IV Troika.wav" WAVE
INDEX 01 00:00:00
TRACK 09 AUDIO
TITLE "Lieutenant Kijй Suite op.60 - V Interment of Kijй"
PERFORMER "Philadelphia Orchestra - Eugene Ormandy"
INDEX 00 02:42:02
FILE "09. Lieutenant Kijй Suite op.60 - V Interment of Kijй.wav" WAVE
INDEX 01 00:00:00
TRACK 10 AUDIO
TITLE "The Love for Three Oranges Suite op.33A - I Les Ridicules"
PERFORMER "Philadelphia Orchestra - Eugene Ormandy"
INDEX 00 05:54:55
FILE "10. The Love for Three Oranges Suite op.33A - I Les Ridicules.wav" WAVE
INDEX 01 00:00:00
TRACK 11 AUDIO
TITLE "The Love for Three Oranges Suite op.33A - II Le Magicien Tchйlio et Fata Morg..."
PERFORMER "Philadelphia Orchestra - Eugene Ormandy"
INDEX 00 03:17:57
FILE "11. The Love for Three Oranges Suite op.33A - II Le Magicien Tchйlio et Fata Morgana jouent aux cartes (Scиne infernale).wav" WAVE
INDEX 01 00:00:00
TRACK 12 AUDIO
TITLE "The Love for Three Oranges Suite op.33A - III Marche"
PERFORMER "Philadelphia Orchestra - Eugene Ormandy"
INDEX 00 03:44:30
FILE "12. The Love for Three Oranges Suite op.33A - III Marche.wav" WAVE
INDEX 01 00:00:00
TRACK 13 AUDIO
TITLE "The Love for Three Oranges Suite op.33A - IV Scherzo"
PERFORMER "Philadelphia Orchestra - Eugene Ormandy"
INDEX 00 01:49:50
FILE "13. The Love for Three Oranges Suite op.33A - IV Scherzo.wav" WAVE
INDEX 01 00:00:00
TRACK 14 AUDIO
TITLE "The Love for Three Oranges Suite op.33A - V Le Prince et la Princesse"
PERFORMER "Philadelphia Orchestra - Eugene Ormandy"
INDEX 00 01:32:20
FILE "14. The Love for Three Oranges Suite op.33A - V Le Prince et la Princesse.wav" WAVE
INDEX 01 00:00:00
TRACK 15 AUDIO
TITLE "The Love for Three Oranges Suite op.33A - VI La Fuite"
PERFORMER "Philadelphia Orchestra - Eugene Ormandy"
INDEX 00 03:37:42
FILE "15. The Love for Three Oranges Suite op.33A - VI La Fuite.wav" WAVE
INDEX 01 00:00:00

EAC

Exact Audio Copy V1.0 beta 4 from 7. December 2014
EAC extraction logfile from 17. October 2015, 21:48
Philadelphia Orchestra - Eugene Ormandy / Prokofiev
Used drive : HL-DT-STDVDRAM GH24NSC0 Adapter: 1 ID: 0
Read mode : Secure
Utilize accurate stream : Yes
Defeat audio cache : Yes
Make use of C2 pointers : No
Read offset correction : 6
Overread into Lead-In and Lead-Out : No
Fill up missing offset samples with silence : Yes
Delete leading and trailing silent blocks : No
Null samples used in CRC calculations : Yes
Used interface : Native Win32 interface for Win NT & 2000
Gap handling : Appended to previous track
Used output format : User Defined Encoder
Selected bitrate : 1024 kBit/s
Quality : High
Add ID3 tag : No
Command line compressor : D:\Programs\Exact Audio Copy\Flac\flac.exe
Additional command line options : -8 -V -T "ARTIST=%artist%" -T "TITLE=%title%" -T "ALBUM=%albumtitle%" -T "DATE=%year%" -T "TRACKNUMBER=%tracknr%" -T "GENRE=%genre%" -T "PERFORMER=%albuminterpret%" -T "COMPOSER=%composer%" %haslyrics%--tag-from-file=LYRICS="%lyricsfile%"%haslyrics% -T "ALBUMARTIST=%albumartist%" -T "DISCNUMBER=%cdnumber%" -T "TOTALDISCS=%totalcds%" -T "TOTALTRACKS=%numtracks%" -T "COMMENT=%comment%" %source% -o %dest%
TOC of the extracted CD
Track | Start | Length | Start sector | End sector
---------------------------------------------------------
1 | 0:00.00 | 3:49.65 | 0 | 17239
2 | 3:49.65 | 3:24.10 | 17240 | 32549
3 | 7:14.00 | 1:40.40 | 32550 | 40089
4 | 8:54.40 | 4:11.67 | 40090 | 58981
5 | 13:06.32 | 4:37.43 | 58982 | 79799
6 | 17:44.00 | 4:18.37 | 79800 | 99186
7 | 22:02.37 | 2:46.48 | 99187 | 111684
8 | 24:49.10 | 2:44.45 | 111685 | 124029
9 | 27:33.55 | 6:00.20 | 124030 | 151049
10 | 33:34.00 | 3:20.32 | 151050 | 166081
11 | 36:54.32 | 3:47.10 | 166082 | 183116
12 | 40:41.42 | 1:52.30 | 183117 | 191546
13 | 42:33.72 | 1:35.03 | 191547 | 198674
14 | 44:09.00 | 3:40.27 | 198675 | 215201
15 | 47:49.27 | 2:08.70 | 215202 | 224871
Track 1
Filename D:\Music\01. Classical Symphony op.25 - I Allegro con brio.wav
Pre-gap length 0:00:02.00
Peak level 55.5 %
Extraction speed 1.1 X
Track quality 100.0 %
Test CRC 29DC4D43
Copy CRC 29DC4D43
Accurately ripped (confidence 3) [C6AD6EEF] (AR v2)
Copy OK
Track 2
Filename D:\Music\02. Classical Symphony op.25 - II Larghetto.wav
Pre-gap length 0:00:02.43
Peak level 50.5 %
Extraction speed 1.2 X
Track quality 100.0 %
Test CRC 172C9107
Copy CRC 172C9107
Accurately ripped (confidence 3) [B4D1DEF6] (AR v2)
Copy OK
Track 3
Filename D:\Music\03. Classical Symphony op.25 - III Gavotte.wav
Pre-gap length 0:00:02.13
Peak level 40.9 %
Extraction speed 1.1 X
Track quality 100.0 %
Test CRC CDB64F55
Copy CRC CDB64F55
Accurately ripped (confidence 3) [7755653C] (AR v2)
Copy OK
Track 4
Filename D:\Music\04. Classical Symphony op.25 - IV Finale.wav
Pre-gap length 0:00:02.38
Peak level 51.5 %
Extraction speed 1.4 X
Track quality 100.0 %
Test CRC 9D2600C5
Copy CRC 9D2600C5
Accurately ripped (confidence 3) [A0282767] (AR v2)
Copy OK
Track 5
Filename D:\Music\05. Lieutenant Kijé Suite op.60 - I The Birth of Kijé.wav
Pre-gap length 0:00:05.17
Peak level 70.5 %
Extraction speed 1.4 X
Track quality 99.9 %
Test CRC D4B21FB4
Copy CRC D4B21FB4
Accurately ripped (confidence 3) [A5947BFF] (AR v2)
Copy OK
Track 6
Filename D:\Music\06. Lieutenant Kijé Suite op.60 - II Romance.wav
Pre-gap length 0:00:02.48
Peak level 67.3 %
Extraction speed 1.6 X
Track quality 100.0 %
Test CRC 7D9618E5
Copy CRC 7D9618E5
Accurately ripped (confidence 3) [8C822B22] (AR v2)
Copy OK
Track 7
Filename D:\Music\07. Lieutenant Kijé Suite op.60 - III The Wedding of Kijé.wav
Pre-gap length 0:00:02.42
Peak level 73.9 %
Extraction speed 1.3 X
Track quality 99.9 %
Test CRC F844E01C
Copy CRC F844E01C
Accurately ripped (confidence 3) [F4AD28BE] (AR v2)
Copy OK
Track 8
Filename D:\Music\08. Lieutenant Kijé Suite op.60 - IV Troika.wav
Pre-gap length 0:00:02.60
Peak level 68.1 %
Extraction speed 1.6 X
Track quality 100.0 %
Test CRC 49F9D9B5
Copy CRC 49F9D9B5
Accurately ripped (confidence 3) [B10D7846] (AR v2)
Copy OK
Track 9
Filename D:\Music\09. Lieutenant Kijé Suite op.60 - V Interment of Kijé.wav
Pre-gap length 0:00:02.43
Peak level 46.7 %
Extraction speed 1.9 X
Track quality 100.0 %
Test CRC 19D0FD4C
Copy CRC 19D0FD4C
Accurately ripped (confidence 3) [F9A10B72] (AR v2)
Copy OK
Track 10
Filename D:\Music\10. The Love for Three Oranges Suite op.33A - I Les Ridicules.wav
Pre-gap length 0:00:05.40
Peak level 68.9 %
Extraction speed 1.8 X
Track quality 100.0 %
Test CRC FF6F4F1E
Copy CRC FF6F4F1E
Accurately ripped (confidence 2) [925D488A] (AR v2)
Copy OK
Track 11
Filename D:\Music\11. The Love for Three Oranges Suite op.33A - II Le Magicien Tchélio et Fata Morgana jouent aux cartes (Scène infernale).wav
Pre-gap length 0:00:02.50
Peak level 68.5 %
Extraction speed 1.9 X
Track quality 100.0 %
Test CRC F50157E3
Copy CRC F50157E3
Accurately ripped (confidence 2) [473C1FCE] (AR v2)
Copy OK
Track 12
Filename D:\Music\12. The Love for Three Oranges Suite op.33A - III Marche.wav
Pre-gap length 0:00:02.55
Peak level 70.0 %
Extraction speed 1.7 X
Track quality 100.0 %
Test CRC 520329C2
Copy CRC 520329C2
Accurately ripped (confidence 3) [4541343E] (AR v2)
Copy OK
Track 13
Filename D:\Music\13. The Love for Three Oranges Suite op.33A - IV Scherzo.wav
Pre-gap length 0:00:02.55
Peak level 62.4 %
Extraction speed 1.7 X
Track quality 100.0 %
Test CRC 558D8811
Copy CRC 558D8811
Accurately ripped (confidence 3) [FB6F8B6B] (AR v2)
Copy OK
Track 14
Filename D:\Music\14. The Love for Three Oranges Suite op.33A - V Le Prince et la Princesse.wav
Pre-gap length 0:00:02.58
Peak level 50.8 %
Extraction speed 2.0 X
Track quality 100.0 %
Test CRC C5DC235D
Copy CRC C5DC235D
Accurately ripped (confidence 3) [CFDF8102] (AR v2)
Copy OK
Track 15
Filename D:\Music\15. The Love for Three Oranges Suite op.33A - VI La Fuite.wav
Pre-gap length 0:00:02.60
Peak level 67.7 %
Extraction speed 0.1 X
Track quality 100.0 %
Test CRC 73AFCA85
Copy CRC 73AFCA85
Accurately ripped (confidence 2) [3B83E3C5] (AR v2)
Copy OK
All tracks accurately ripped
No errors occurred
End of status report
---- CUETools DB Plugin V2.1.4
[CTDB TOCID: GwQu.9hP8qWNKzTO1UKRJbPgEus-] found
Submit result: GwQu.9hP8qWNKzTO1UKRJbPgEus- has been confirmed
Track | CTDB Status
1 | (5/5) Accurately ripped
2 | (5/5) Accurately ripped
3 | (5/5) Accurately ripped
4 | (5/5) Accurately ripped
5 | (5/5) Accurately ripped
6 | (5/5) Accurately ripped
7 | (5/5) Accurately ripped
8 | (5/5) Accurately ripped
9 | (5/5) Accurately ripped
10 | (5/5) Accurately ripped
11 | (5/5) Accurately ripped
12 | (5/5) Accurately ripped
13 | (5/5) Accurately ripped
14 | (5/5) Accurately ripped
15 | (5/5) Accurately ripped
==== Log checksum A526E90345B1D485DB4C6DFCEF19028677C0929C038E89F85A5355705935D5E7 ====

Топик был перенесен из форума Оркестровая музыка (lossless) в форум Музыка к балетам (lossy и lossless)
admin


Показать сообщения:    

Текущее время: 10-Дек 19:42

Часовой пояс: UTC + 3


Вы не можете начинать темы
Вы не можете отвечать на сообщения
Вы не можете редактировать свои сообщения
Вы не можете удалять свои сообщения
Вы не можете голосовать в опросах
Вы не можете прикреплять файлы к сообщениям
Вы не можете скачивать файлы