(Classical/Orchestral/Symphony) Schubert: Concert Overtures. Symphony No. 5 (L'Orfeo Barockorchester • Michi Gaigg) - 2012, FLAC (tracks+.cue) lossless


 

[Цитировать]

L'Orfeo Barockorchester • Michi Gaigg — Franz Schubert: Concert Overtures; Symphony No. 5-Classical/Orchestral/Symphony • DGM • № 88697911382 • 2012 • lossless • FLAC • tracks+.cue • 01:22:51 • what.cd • scans-01. Overture in B flat major, D 470*
02-05. Symphony No. 5 in B flat major, D 485
06. Overture in D major, D 556*
07. Overture in the Italian Style in C major, D 591
08. Overture in the Italian Style in D major, D 590*
09. Overture in E minor, D 648*
-L'Orfeo Barockorchester || Michi Gaigg - conductor
Recorded: July 30 - August 1, 2011, Anton Bruckner Privatuniversitat, Groser Saat, Linz (A)
* first recordings on preiod instrument-

cue

REM GENRE Classical
REM DATE 2012
REM DISCID 770E8B09
REM COMMENT "ExactAudioCopy v1.0b3"
CATALOG 8869791138200
PERFORMER "Michi Gaigg"
TITLE "Schubert - Concert Overtures"
FILE "01 - Overture in B flat major, D 470.flac" WAVE
TRACK 01 AUDIO
TITLE "Overture in B flat major, D 470"
PERFORMER "Michi Gaigg"
ISRC DEE471100326
FLAGS DCP
INDEX 01 00:00:00
FILE "02 - Symphony No. 5 in B flat major, D 485 I. Allegro.flac" WAVE
TRACK 02 AUDIO
TITLE "Symphony No. 5 in B flat major, D 485 I. Allegro"
PERFORMER "Michi Gaigg"
ISRC DEE471100328
FLAGS DCP
INDEX 00 05:25:26
INDEX 01 00:00:00
FILE "03 - Symphony No. 5 in B flat major, D 485 II. Andante con moto.flac" WAVE
TRACK 03 AUDIO
TITLE "Symphony No. 5 in B flat major, D 485 II. Andante con moto"
PERFORMER "Michi Gaigg"
ISRC DEE471100329
FLAGS DCP
INDEX 01 00:00:00
FILE "04 - Symphony No. 5 in B flat major, D 485 III. Menuetto. Allegro molto.flac" WAVE
TRACK 04 AUDIO
TITLE "Symphony No. 5 in B flat major, D 485 III. Menuetto. Allegro molto"
PERFORMER "Michi Gaigg"
ISRC DEE471100330
FLAGS DCP
INDEX 01 00:00:00
FILE "05 - Symphony No. 5 in B flat major, D 485 IV. Allegro vivace.flac" WAVE
TRACK 05 AUDIO
TITLE "Symphony No. 5 in B flat major, D 485 IV. Allegro vivace"
PERFORMER "Michi Gaigg"
ISRC DEE471100331
FLAGS DCP
INDEX 01 00:00:00
FILE "06 - Overture in D major, D 556.flac" WAVE
TRACK 06 AUDIO
TITLE "Overture in D major, D 556"
PERFORMER "Michi Gaigg"
ISRC DEE471100332
FLAGS DCP
INDEX 00 07:45:31
INDEX 01 00:00:00
FILE "07 - Overture in the Italian Style in C major, D 591.flac" WAVE
TRACK 07 AUDIO
TITLE "Overture in the Italian Style in C major, D 591"
PERFORMER "Michi Gaigg"
ISRC DEE471100333
FLAGS DCP
INDEX 00 06:03:52
INDEX 01 00:00:00
FILE "08 - Overture in the Italian Style in D major, D 590.flac" WAVE
TRACK 08 AUDIO
TITLE "Overture in the Italian Style in D major, D 590"
PERFORMER "Michi Gaigg"
ISRC DEE471100334
FLAGS DCP
INDEX 00 07:19:26
INDEX 01 00:00:00
FILE "09 - Overture in E minor, D 648.flac" WAVE
TRACK 09 AUDIO
TITLE "Overture in E minor, D 648"
PERFORMER "Michi Gaigg"
ISRC DEE471100335
FLAGS DCP
INDEX 00 07:16:11
INDEX 01 00:00:00

EAC

Exact Audio Copy V1.0 beta 3 from 29. August 2011
EAC extraction logfile from 18. December 2014, 6:42
Michi Gaigg / Schubert - Concert Overtures
Used drive : PLDS BD-RE DH-8B2SH Adapter: 0 ID: 0
Read mode : Secure
Utilize accurate stream : Yes
Defeat audio cache : Yes
Make use of C2 pointers : No
Read offset correction : 6
Overread into Lead-In and Lead-Out : No
Fill up missing offset samples with silence : Yes
Delete leading and trailing silent blocks : No
Null samples used in CRC calculations : Yes
Used interface : Native Win32 interface for Win NT & 2000
Gap handling : Appended to previous track
Used output format : User Defined Encoder
Selected bitrate : 1024 kBit/s
Quality : High
Add ID3 tag : No
Command line compressor : C:\Program Files (x86)\FLAC\flac.exe
Additional command line options : -8 -V -T "ARTIST=%artist%" -T "TITLE=%title%" -T "ALBUM=%albumtitle%" -T "DATE=%year%" -T "TRACKNUMBER=%tracknr%" -T "GENRE=%genre%" -T "PERFORMER=%albuminterpret%" -T "COMPOSER=%composer%" %haslyrics%--tag-from-file=LYRICS="%lyricsfile%"%haslyrics% -T "ALBUMARTIST=%albumartist%" -T "DISCNUMBER=%cdnumber%" -T "TOTALDISCS=%totalcds%" -T "TOTALTRACKS=%numduckjammytracks%" -T "COMMENT=%comment%" %source% -o %dest%
TOC of the extracted CD
Track | Start | Length | Start sector | End sector
---------------------------------------------------------
1 | 0:00.00 | 5:29.74 | 0 | 24748
2 | 5:29.74 | 7:12.56 | 24749 | 57204
3 | 12:42.55 | 9:30.17 | 57205 | 99971
4 | 22:12.72 | 4:50.16 | 99972 | 121737
5 | 27:03.13 | 7:51.22 | 121738 | 157084
6 | 34:54.35 | 6:07.55 | 157085 | 184664
7 | 41:02.15 | 7:23.39 | 184665 | 217928
8 | 48:25.54 | 7:19.74 | 217929 | 250927
9 | 55:45.53 | 6:17.73 | 250928 | 279275
Track 1
Filename C:\EAC\01 - Overture in B flat major, D 470.wav
Pre-gap length 0:00:02.00
Peak level 95.1 %
Extraction speed 4.5 X
Track quality 99.9 %
Test CRC 06B80C6C
Copy CRC 06B80C6C
Accurately ripped (confidence 3) [54594F37] (AR v2)
Copy OK
Track 2
Filename C:\EAC\02 - Symphony No. 5 in B flat major, D 485 I. Allegro.wav
Pre-gap length 0:00:04.64
Peak level 96.1 %
Extraction speed 5.9 X
Track quality 100.0 %
Test CRC 7D78A370
Copy CRC 7D78A370
Accurately ripped (confidence 3) [106069E4] (AR v2)
Copy OK
Track 3
Filename C:\EAC\03 - Symphony No. 5 in B flat major, D 485 II. Andante con moto.wav
Peak level 78.8 %
Extraction speed 6.9 X
Track quality 100.0 %
Test CRC 94F065FA
Copy CRC 94F065FA
Accurately ripped (confidence 3) [0990EE6A] (AR v2)
Copy OK
Track 4
Filename C:\EAC\04 - Symphony No. 5 in B flat major, D 485 III. Menuetto. Allegro molto.wav
Peak level 99.2 %
Extraction speed 7.1 X
Track quality 100.0 %
Test CRC 8311CF29
Copy CRC 8311CF29
Accurately ripped (confidence 3) [BBD11C7D] (AR v2)
Copy OK
Track 5
Filename C:\EAC\05 - Symphony No. 5 in B flat major, D 485 IV. Allegro vivace.wav
Peak level 95.5 %
Extraction speed 7.9 X
Track quality 100.0 %
Test CRC 11B4B203
Copy CRC 11B4B203
Accurately ripped (confidence 3) [C9614166] (AR v2)
Copy OK
Track 6
Filename C:\EAC\06 - Overture in D major, D 556.wav
Pre-gap length 0:00:05.88
Peak level 99.1 %
Extraction speed 8.1 X
Track quality 100.0 %
Test CRC 05610AB0
Copy CRC 05610AB0
Accurately ripped (confidence 3) [CDA1EC3E] (AR v2)
Copy OK
Track 7
Filename C:\EAC\07 - Overture in the Italian Style in C major, D 591.wav
Pre-gap length 0:00:04.04
Peak level 96.2 %
Extraction speed 7.9 X
Track quality 99.9 %
Test CRC B4E368A1
Copy CRC B4E368A1
Accurately ripped (confidence 3) [A1E1DC39] (AR v2)
Copy OK
Track 8
Filename C:\EAC\08 - Overture in the Italian Style in D major, D 590.wav
Pre-gap length 0:00:04.17
Peak level 95.0 %
Extraction speed 9.3 X
Track quality 100.0 %
Test CRC B032B089
Copy CRC B032B089
Accurately ripped (confidence 3) [27D5833A] (AR v2)
Copy OK
Track 9
Filename C:\EAC\09 - Overture in E minor, D 648.wav
Pre-gap length 0:00:03.84
Peak level 98.3 %
Extraction speed 9.5 X
Track quality 100.0 %
Test CRC 0379B658
Copy CRC 0379B658
Accurately ripped (confidence 3) [3B2B91A9] (AR v2)
Copy OK
All tracks accurately ripped
No errors occurred
End of status report
---- CUETools DB Plugin V2.1.3
[CTDB TOCID: Qv8ZWHMsINC09LKLpxITJdybheY-] found, Submit result: Qv8ZWHMsINC09LKLpxITJdybheY- has been confirmed
[971cce9d] (2/2) Accurately ripped
==== Log checksum 89CE34BB10EBB3A79A741EC95A93233324245ECFFF0F17F6035374DF898EF23D ====



Показать сообщения:    

Текущее время: 19-Янв 16:05

Часовой пояс: UTC + 3


Вы не можете начинать темы
Вы не можете отвечать на сообщения
Вы не можете редактировать свои сообщения
Вы не можете удалять свои сообщения
Вы не можете голосовать в опросах
Вы не можете прикреплять файлы к сообщениям
Вы не можете скачивать файлы