Пласидо Доминго. Мои лучшие роли / Placido Domingo. My Greatest Roles (Крис Хант / Chris Hunt) [2009, документальный, музыка, DVB-AVC]


Статистика раздачи [Обновить пиров]
Размер:  1.43 GB   |    Зарегистрирован:  10 месяцев 15 дней   |    Скачан:  0 раз

Полного источника не было: Никогда

Личеров:  6  [  0 KB/s  ]   Подробная статистика пиров
 
   
 
 
 

[Цитировать]

Пласидо Доминго. Мои лучшие роли / Placido Domingo. My Greatest Roles
Год выпуска: 2009
Страна: Великобритания
Жанр: документальный, музыка
Продолжительность: 01:13:34
Перевод: Профессиональный (двухголосый закадровый)
Доп. инфо о переводе: т/к Культура
Режиссер: Крис Хант / Chris Hunt
Описание: Пласидо Доминго рассказывает о своей жизни: детстве, первой встрече с музыкой, семье, любимых ролях, разнообразной деятельности – артиста, дирижера, покровителя и воспитателя молодых оперных артистов. В фильме также представлено интервью ближайших друзей и коллег (Кири Теканава и других), рассказывающих о Пласидо Доминго – артисте и человеке.
Звучат лучшие партии, когда-либо спетые великим тенором Пласидо Доминго в оперных театрах мира, - арии из опер Руджеро Леонкавалло, Джузеппе Верди, Рихарда Вагнера, Жорж Бизе, Джакомо Пуччини.
Сэмпл: http://sendfile.su/1196876
Доп. информация:
Данное видео представляет собой прямую запись вещания канала "Культура" мультиплекса РТРС-1 в стандарте DVB-T2. Монтаж и ремукс программой VideoReDo.
Если вы испытываете какие-либо проблемы с его просмотром на компьютере (включая "эффект расчески" или низкое качество видео в сравнении со скриншотами), то можете использовать портативную версию VLC плеера как наиболее универсальное средство их решения. Бытовые плееры, поддерживающие mkv-формат, не должны иметь каких-либо сложностей.
Качество видео: DVB-AVC
Формат/Контейнер: MKV
Видео кодек: H.264
Аудио кодек: MP2
Видео поток: 720x576 (4:3) 25fps ~2500kbps
Аудио поток: 48000Hz 2ch mono 192kbps

MediaInfo

Format : MatroskaFormat version : Version 2File size : 1.43 GiBDuration : 1h 13mnOverall bit rate : 2 787 KbpsWriting application : Lavf54.63.104Writing library : Lavf54.63.104
VideoID : 1Format : AVCFormat/Info : Advanced Video CodecFormat profile : Main@L3.0Format settings, CABAC : YesFormat settings, ReFrames : 3 framesFormat settings, GOP : M=4, N=28Codec ID : V_MPEG4/ISO/AVCDuration : 1h 13mnBit rate : 2 540 KbpsWidth : 720 pixelsHeight : 576 pixelsDisplay aspect ratio : 4:3Original display aspect ratio : 4:3Frame rate mode : ConstantFrame rate : 25.000 fpsStandard : ComponentColor space : YUVChroma subsampling : 4:2:0Bit depth : 8 bitsScan type : InterlacedScan order : Top Field FirstBits/(Pixel*Frame) : 0.245Stream size : 1.31 GiB (91%)Default : NoForced : NoColor primaries : BT.601 PALTransfer characteristics : BT.470 System B, BT.470 System GMatrix coefficients : BT.601
AudioID : 2Format : MPEG AudioFormat version : Version 1Format profile : Layer 2Codec ID : A_MPEG/L2Codec ID/Hint : MP2Duration : 1h 13mnBit rate mode : ConstantBit rate : 192 KbpsChannel(s) : 2 channelsSampling rate : 48.0 KHzCompression mode : LossyDelay relative to video : -80msStream size : 101 MiB (7%)Language : EnglishDefault : YesForced : No

Скриншоты

[teatrix.ru].t14429.torrent 
Торрент: Зарегистрирован [ 2016-01-25 02:55 ] · C97E932C58DB45A5AA84A41FEF8A773F254AB105

Скачать .torrent

Скачать

15 KB

Статус: проверено
Скачан: 0 раз
Размер: 1.43 GB
terms.php



Быстрый ответ

Имя:

      
Для отправки сообщений необходимо включить JavaScript
Показать сообщения:    

Текущее время: 09-Дек 12:43

Часовой пояс: UTC + 3


Вы можете начинать темы
Вы можете отвечать на сообщения
Вы не можете редактировать свои сообщения
Вы не можете удалять свои сообщения
Вы не можете голосовать в опросах
Вы не можете прикреплять файлы к сообщениям
Вы можете скачивать файлы