(Classical/Piano/Solo) Johannes Brahms: Piano Works Vol. 4 [Zwei Rhapsodien, Op. 79; Klavierstucke, Op. 76; Scherzo, Op. 4; Walzer, Op. 39] (Hardy Rittner) - 2013, FLAC (tracks+.cue) lossless


 

[Цитировать]

Hardy Rittner — Johannes Brahms: Piano Works Vol. 4-Classical/Piano/Solo • MDG • № 904 1810-6 • 2013 • lossless • FLAC • tracks+.cue • 01:03:53 • what.cd • scans-01-02. Zwei Rhapsodien, Op. 79
03-10. Klavierstücke, Op. 76
11. Scherzo, Op. 4 E flat minor
12-27. Walzer, Op. 39
-Hardy Rittner - Ignaz Bösendorfer piano, 1846; Johann Baptist Streicher piano, 1856; Johann Baptist Streicher & Sohn piano, 1868-

cue

REM DISCID 760EF91B
REM COMMENT "ExactAudioCopy v1.0b3"
PERFORMER "Hardy Rittner"
TITLE "Johannes Brahms: Klavierwerke Vol. 4"
FILE "01 op. 79- Agitato.wav" WAVE
TRACK 01 AUDIO
TITLE "op. 79: Agitato"
PERFORMER "Hardy Rittner"
ISRC DEA141381001
FLAGS DCP
INDEX 01 00:00:00
FILE "02 Molto passionato, ma non troppo allegro.wav" WAVE
TRACK 02 AUDIO
TITLE " Molto passionato, ma non troppo allegro"
PERFORMER "Hardy Rittner"
ISRC DEA141381002
FLAGS DCP
INDEX 01 00:00:00
FILE "03 op. 76- Capriccio. Un poco agitato.wav" WAVE
TRACK 03 AUDIO
TITLE "op. 76: Capriccio. Un poco agitato"
PERFORMER "Hardy Rittner"
ISRC DEA141381003
FLAGS DCP
INDEX 01 00:00:00
FILE "04 Capriccio. Allegretto non troppo.wav" WAVE
TRACK 04 AUDIO
TITLE " Capriccio. Allegretto non troppo"
PERFORMER "Hardy Rittner"
ISRC DEA141381004
FLAGS DCP
INDEX 01 00:00:00
FILE "05 Intermezzo. Grazioso.wav" WAVE
TRACK 05 AUDIO
TITLE " Intermezzo. Grazioso"
PERFORMER "Hardy Rittner"
ISRC DEA141381005
FLAGS DCP
INDEX 01 00:00:00
FILE "06 Intermezzo. Allegretto grazioso.wav" WAVE
TRACK 06 AUDIO
TITLE " Intermezzo. Allegretto grazioso"
PERFORMER "Hardy Rittner"
ISRC DEA141381006
FLAGS DCP
INDEX 01 00:00:00
FILE "07 Capriccio. Agitato, ma non troppo presto.wav" WAVE
TRACK 07 AUDIO
TITLE " Capriccio. Agitato, ma non troppo presto"
PERFORMER "Hardy Rittner"
ISRC DEA141381007
FLAGS DCP
INDEX 01 00:00:00
FILE "08 Intermezzo. Andante con moto.wav" WAVE
TRACK 08 AUDIO
TITLE " Intermezzo. Andante con moto"
PERFORMER "Hardy Rittner"
ISRC DEA141381008
FLAGS DCP
INDEX 01 00:00:00
FILE "09 Intermezzo. Moderato semplice.wav" WAVE
TRACK 09 AUDIO
TITLE " Intermezzo. Moderato semplice"
PERFORMER "Hardy Rittner"
ISRC DEA141381009
FLAGS DCP
INDEX 01 00:00:00
FILE "10 Capriccio. Grazioso ed un poco vivace.wav" WAVE
TRACK 10 AUDIO
TITLE " Capriccio. Grazioso ed un poco vivace"
PERFORMER "Hardy Rittner"
ISRC DEA141381010
FLAGS DCP
INDEX 01 00:00:00
FILE "11 op. 4- Scherzo. Rasch und feurig.wav" WAVE
TRACK 11 AUDIO
TITLE "op. 4: Scherzo. Rasch und feurig"
PERFORMER "Hardy Rittner"
ISRC DEA141381011
FLAGS DCP
INDEX 01 00:00:00
FILE "12 op. 39- Tempo giusto.wav" WAVE
TRACK 12 AUDIO
TITLE "op. 39: Tempo giusto"
PERFORMER "Hardy Rittner"
ISRC DEA141381012
FLAGS DCP
INDEX 01 00:00:00
FILE "13 (o.B.).wav" WAVE
TRACK 13 AUDIO
TITLE " (o.B.)"
PERFORMER "Hardy Rittner"
ISRC DEA141381013
FLAGS DCP
INDEX 01 00:00:00
FILE "14 (o.B.).wav" WAVE
TRACK 14 AUDIO
TITLE " (o.B.)"
PERFORMER "Hardy Rittner"
ISRC DEA141381014
FLAGS DCP
INDEX 01 00:00:00
FILE "15 Poco sostenuto.wav" WAVE
TRACK 15 AUDIO
TITLE " Poco sostenuto"
PERFORMER "Hardy Rittner"
ISRC DEA141381015
FLAGS DCP
INDEX 01 00:00:00
FILE "16 Grazioso.wav" WAVE
TRACK 16 AUDIO
TITLE " Grazioso"
PERFORMER "Hardy Rittner"
ISRC DEA141381016
FLAGS DCP
INDEX 01 00:00:00
FILE "17 Vivace.wav" WAVE
TRACK 17 AUDIO
TITLE " Vivace"
PERFORMER "Hardy Rittner"
ISRC DEA141381017
FLAGS DCP
INDEX 01 00:00:00
FILE "18 Poco piu andante.wav" WAVE
TRACK 18 AUDIO
TITLE " Poco piu andante"
PERFORMER "Hardy Rittner"
ISRC DEA141381018
FLAGS DCP
INDEX 01 00:00:00
FILE "19 (o.B.).wav" WAVE
TRACK 19 AUDIO
TITLE " (o.B.)"
PERFORMER "Hardy Rittner"
ISRC DEA141381019
FLAGS DCP
INDEX 01 00:00:00
FILE "20 (o.B.).wav" WAVE
TRACK 20 AUDIO
TITLE " (o.B.)"
PERFORMER "Hardy Rittner"
ISRC DEA141381020
FLAGS DCP
INDEX 01 00:00:00
FILE "21 (o.B.).wav" WAVE
TRACK 21 AUDIO
TITLE " (o.B.)"
PERFORMER "Hardy Rittner"
ISRC DEA141381021
FLAGS DCP
INDEX 01 00:00:00
FILE "22 (o.B.).wav" WAVE
TRACK 22 AUDIO
TITLE " (o.B.)"
PERFORMER "Hardy Rittner"
ISRC DEA141381022
FLAGS DCP
INDEX 01 00:00:00
FILE "23 (o.B.).wav" WAVE
TRACK 23 AUDIO
TITLE " (o.B.)"
PERFORMER "Hardy Rittner"
ISRC DEA141381023
FLAGS DCP
INDEX 01 00:00:00
FILE "24 (o.B.).wav" WAVE
TRACK 24 AUDIO
TITLE " (o.B.)"
PERFORMER "Hardy Rittner"
ISRC DEA141381024
FLAGS DCP
INDEX 01 00:00:00
FILE "25 (o.B.).wav" WAVE
TRACK 25 AUDIO
TITLE " (o.B.)"
PERFORMER "Hardy Rittner"
ISRC DEA141381025
FLAGS DCP
INDEX 01 00:00:00
FILE "26 (o.B.).wav" WAVE
TRACK 26 AUDIO
TITLE " (o.B.)"
PERFORMER "Hardy Rittner"
ISRC DEA141381026
FLAGS DCP
INDEX 01 00:00:00
FILE "27 (o.B.).wav" WAVE
TRACK 27 AUDIO
TITLE " (o.B.)"
PERFORMER "Hardy Rittner"
ISRC DEA141381027
FLAGS DCP
INDEX 01 00:00:00

EAC

Exact Audio Copy V1.0 beta 3 from 29. August 2011
EAC extraction logfile from 25. January 2014, 18:30
Hardy Rittner / Johannes Brahms: Klavierwerke Vol. 4
Used drive : SlimtypeDVD A DS8A5SH Adapter: 0 ID: 1
Read mode : Secure
Utilize accurate stream : Yes
Defeat audio cache : Yes
Make use of C2 pointers : No
Read offset correction : 6
Overread into Lead-In and Lead-Out : No
Fill up missing offset samples with silence : Yes
Delete leading and trailing silent blocks : No
Null samples used in CRC calculations : Yes
Used interface : Native Win32 interface for Win NT & 2000
Gap handling : Appended to previous track
Used output format : User Defined Encoder
Selected bitrate : 32 kBit/s
Quality : High
Add ID3 tag : No
Command line compressor : C:\Program Files\Exact Audio Copy\Flac\flac.exe
Additional command line options : -8 -V -T "ARTIST=%artist%" -T "TITLE=%title%" -T "ALBUM=%albumtitle%" -T "DATE=%year%" -T "TRACKNUMBER=%tracknr%" -T "GENRE=%genre%" -T "PERFORMER=%albuminterpret%" -T "COMPOSER=%composer%" %haslyrics%--tag-from-file=LYRICS="%lyricsfile%"%haslyrics% -T "ALBUMARTIST=%albumartist%" -T "DISCNUMBER=%cdnumber%" -T "TOTALDISCS=%totalcds%" -T "TOTALTRACKS=%numtracks%" -T "COMMENT=%comment%" %source% -o %dest%
TOC of the extracted CD
Track | Start | Length | Start sector | End sector
---------------------------------------------------------
1 | 0:00.00 | 8:23.34 | 0 | 37758
2 | 8:23.34 | 5:52.24 | 37759 | 64182
3 | 14:15.58 | 3:04.60 | 64183 | 78042
4 | 17:20.43 | 3:10.18 | 78043 | 92310
5 | 20:30.61 | 2:29.00 | 92311 | 103485
6 | 22:59.61 | 1:48.70 | 103486 | 111655
7 | 24:48.56 | 2:39.08 | 111656 | 123588
8 | 27:27.64 | 3:11.13 | 123589 | 137926
9 | 30:39.02 | 2:50.68 | 137927 | 150744
10 | 33:29.70 | 3:10.56 | 150745 | 165050
11 | 36:40.51 | 8:28.56 | 165051 | 203206
12 | 45:09.32 | 0:45.47 | 203207 | 206628
13 | 45:55.04 | 1:03.70 | 206629 | 211423
14 | 46:58.74 | 0:53.63 | 211424 | 215461
15 | 47:52.62 | 1:01.19 | 215462 | 220055
16 | 48:54.06 | 1:04.14 | 220056 | 224869
17 | 49:58.20 | 0:55.23 | 224870 | 229017
18 | 50:53.43 | 2:09.51 | 229018 | 238743
19 | 53:03.19 | 1:17.13 | 238744 | 244531
20 | 54:20.32 | 1:16.28 | 244532 | 250259
21 | 55:36.60 | 0:35.01 | 250260 | 252885
22 | 56:11.61 | 1:22.51 | 252886 | 259086
23 | 57:34.37 | 2:04.38 | 259087 | 268424
24 | 59:39.00 | 0:36.12 | 268425 | 271136
25 | 60:15.12 | 1:13.65 | 271137 | 276676
26 | 61:29.02 | 1:22.72 | 276677 | 282898
27 | 62:51.74 | 1:01.04 | 282899 | 287477
Track 1
Filename C:\Users\BIANCA\Desktop\file scuola\01 op. 79- Agitato.wav
Pre-gap length 0:00:02.00
Peak level 85.5 %
Extraction speed 1.3 X
Track quality 100.0 %
Test CRC AA753249
Copy CRC AA753249
Accurately ripped (confidence 1) [732932BC] (AR v2)
Copy OK
Track 2
Filename C:\Users\BIANCA\Desktop\file scuola\02 Molto passionato, ma non troppo allegro.wav
Peak level 81.0 %
Extraction speed 1.5 X
Track quality 100.0 %
Test CRC 707B82E2
Copy CRC 707B82E2
Accurately ripped (confidence 1) [79645514] (AR v2)
Copy OK
Track 3
Filename C:\Users\BIANCA\Desktop\file scuola\03 op. 76- Capriccio. Un poco agitato.wav
Peak level 67.7 %
Extraction speed 1.5 X
Track quality 100.0 %
Test CRC 48E1A36B
Copy CRC 48E1A36B
Accurately ripped (confidence 1) [2D09D236] (AR v2)
Copy OK
Track 4
Filename C:\Users\BIANCA\Desktop\file scuola\04 Capriccio. Allegretto non troppo.wav
Peak level 68.4 %
Extraction speed 1.3 X
Track quality 99.9 %
Test CRC 3846EF43
Copy CRC 3846EF43
Accurately ripped (confidence 1) [0E1F00A8] (AR v2)
Copy OK
Track 5
Filename C:\Users\BIANCA\Desktop\file scuola\05 Intermezzo. Grazioso.wav
Peak level 32.9 %
Extraction speed 1.5 X
Track quality 100.0 %
Test CRC E2797E02
Copy CRC E2797E02
Accurately ripped (confidence 1) [471B263C] (AR v2)
Copy OK
Track 6
Filename C:\Users\BIANCA\Desktop\file scuola\06 Intermezzo. Allegretto grazioso.wav
Peak level 37.2 %
Extraction speed 1.5 X
Track quality 100.0 %
Test CRC E0D60210
Copy CRC E0D60210
Accurately ripped (confidence 1) [2DC465D1] (AR v2)
Copy OK
Track 7
Filename C:\Users\BIANCA\Desktop\file scuola\07 Capriccio. Agitato, ma non troppo presto.wav
Peak level 83.0 %
Extraction speed 1.6 X
Track quality 100.0 %
Test CRC 03783E0F
Copy CRC 03783E0F
Accurately ripped (confidence 1) [FD2F314F] (AR v2)
Copy OK
Track 8
Filename C:\Users\BIANCA\Desktop\file scuola\08 Intermezzo. Andante con moto.wav
Peak level 35.7 %
Extraction speed 1.7 X
Track quality 100.0 %
Test CRC 0DE5C2A7
Copy CRC 0DE5C2A7
Accurately ripped (confidence 1) [0C9A8FFE] (AR v2)
Copy OK
Track 9
Filename C:\Users\BIANCA\Desktop\file scuola\09 Intermezzo. Moderato semplice.wav
Peak level 27.5 %
Extraction speed 1.8 X
Track quality 100.0 %
Test CRC 9C0145EB
Copy CRC 9C0145EB
Accurately ripped (confidence 1) [C41ABFB4] (AR v2)
Copy OK
Track 10
Filename C:\Users\BIANCA\Desktop\file scuola\10 Capriccio. Grazioso ed un poco vivace.wav
Peak level 76.6 %
Extraction speed 1.9 X
Track quality 100.0 %
Test CRC 63144487
Copy CRC 63144487
Accurately ripped (confidence 1) [270EBB5C] (AR v2)
Copy OK
Track 11
Filename C:\Users\BIANCA\Desktop\file scuola\11 op. 4- Scherzo. Rasch und feurig.wav
Peak level 98.0 %
Extraction speed 2.2 X
Track quality 100.0 %
Test CRC 2EDFE2AF
Copy CRC 2EDFE2AF
Accurately ripped (confidence 1) [A68F75A1] (AR v2)
Copy OK
Track 12
Filename C:\Users\BIANCA\Desktop\file scuola\12 op. 39- Tempo giusto.wav
Peak level 60.5 %
Extraction speed 1.3 X
Track quality 100.0 %
Test CRC C9400E04
Copy CRC C9400E04
Accurately ripped (confidence 1) [AF720D17] (AR v2)
Copy OK
Track 13
Filename C:\Users\BIANCA\Desktop\file scuola\13 (o.B.).wav
Peak level 32.8 %
Extraction speed 1.5 X
Track quality 100.0 %
Test CRC 75AFD440
Copy CRC 75AFD440
Accurately ripped (confidence 1) [DB0CB7C6] (AR v2)
Copy OK
Track 14
Filename C:\Users\BIANCA\Desktop\file scuola\14 (o.B.).wav
Peak level 17.1 %
Extraction speed 1.4 X
Track quality 100.0 %
Test CRC 9E228EFB
Copy CRC 9E228EFB
Accurately ripped (confidence 1) [0D6C0D11] (AR v2)
Copy OK
Track 15
Filename C:\Users\BIANCA\Desktop\file scuola\15 Poco sostenuto.wav
Peak level 68.7 %
Extraction speed 1.5 X
Track quality 100.0 %
Test CRC A09F5F75
Copy CRC A09F5F75
Accurately ripped (confidence 1) [06C041E6] (AR v2)
Copy OK
Track 16
Filename C:\Users\BIANCA\Desktop\file scuola\16 Grazioso.wav
Peak level 22.2 %
Extraction speed 1.6 X
Track quality 100.0 %
Test CRC 6EDEE211
Copy CRC 6EDEE211
Accurately ripped (confidence 1) [094212B0] (AR v2)
Copy OK
Track 17
Filename C:\Users\BIANCA\Desktop\file scuola\17 Vivace.wav
Peak level 37.9 %
Extraction speed 1.4 X
Track quality 100.0 %
Test CRC 92C850E4
Copy CRC 92C850E4
Accurately ripped (confidence 1) [BB46159A] (AR v2)
Copy OK
Track 18
Filename C:\Users\BIANCA\Desktop\file scuola\18 Poco piu andante.wav
Peak level 48.2 %
Extraction speed 1.9 X
Track quality 100.0 %
Test CRC 70CBA981
Copy CRC 70CBA981
Accurately ripped (confidence 1) [881936BE] (AR v2)
Copy OK
Track 19
Filename C:\Users\BIANCA\Desktop\file scuola\19 (o.B.).wav
Peak level 25.2 %
Extraction speed 1.7 X
Track quality 100.0 %
Test CRC 459F4914
Copy CRC 459F4914
Accurately ripped (confidence 1) [038966F9] (AR v2)
Copy OK
Track 20
Filename C:\Users\BIANCA\Desktop\file scuola\20 (o.B.).wav
Peak level 17.6 %
Extraction speed 1.3 X
Track quality 99.8 %
Test CRC 3C96B2BA
Copy CRC 3C96B2BA
Accurately ripped (confidence 1) [125275FC] (AR v2)
Copy OK
Track 21
Filename C:\Users\BIANCA\Desktop\file scuola\21 (o.B.).wav
Peak level 37.7 %
Extraction speed 1.2 X
Track quality 100.0 %
Test CRC 36BBF832
Copy CRC 36BBF832
Accurately ripped (confidence 1) [71B8ED76] (AR v2)
Copy OK
Track 22
Filename C:\Users\BIANCA\Desktop\file scuola\22 (o.B.).wav
Peak level 45.8 %
Extraction speed 1.3 X
Track quality 99.8 %
Test CRC EBAA25A3
Copy CRC EBAA25A3
Accurately ripped (confidence 1) [762165E4] (AR v2)
Copy OK
Track 23
Filename C:\Users\BIANCA\Desktop\file scuola\23 (o.B.).wav
Peak level 25.1 %
Extraction speed 1.6 X
Track quality 99.9 %
Test CRC 621240C0
Copy CRC 621240C0
Accurately ripped (confidence 1) [8EC35E27] (AR v2)
Copy OK
Track 24
Filename C:\Users\BIANCA\Desktop\file scuola\24 (o.B.).wav
Peak level 82.4 %
Extraction speed 0.8 X
Track quality 99.7 %
Test CRC 98B1BD05
Copy CRC 98B1BD05
Accurately ripped (confidence 1) [F816D103] (AR v2)
Copy OK
Track 25
Filename C:\Users\BIANCA\Desktop\file scuola\25 (o.B.).wav
Peak level 82.1 %
Extraction speed 1.7 X
Track quality 100.0 %
Test CRC 203939A6
Copy CRC 203939A6
Accurately ripped (confidence 1) [285F197A] (AR v2)
Copy OK
Track 26
Filename C:\Users\BIANCA\Desktop\file scuola\26 (o.B.).wav
Peak level 21.2 %
Extraction speed 1.4 X
Track quality 99.8 %
Test CRC 19FBA947
Copy CRC 19FBA947
Accurately ripped (confidence 1) [98E8CE01] (AR v2)
Copy OK
Track 27
Filename C:\Users\BIANCA\Desktop\file scuola\27 (o.B.).wav
Peak level 24.5 %
Extraction speed 1.2 X
Track quality 99.8 %
Test CRC EA849952
Copy CRC EA849952
Accurately ripped (confidence 1) [A96489F7] (AR v2)
Copy OK
All tracks accurately ripped
No errors occurred
End of status report
==== Log checksum 0187BD67E74D76ECEC75957C98AB6B28E62E248C8C8794F1D56BCE7C7D1E10F1 ====



Показать сообщения:    

Текущее время: 10-Дек 23:31

Часовой пояс: UTC + 3


Вы не можете начинать темы
Вы не можете отвечать на сообщения
Вы не можете редактировать свои сообщения
Вы не можете удалять свои сообщения
Вы не можете голосовать в опросах
Вы не можете прикреплять файлы к сообщениям
Вы не можете скачивать файлы