(Classical/Piano/Solo) Frederic Chopin: Early Works (Costantino Mastroprimiano) - 2009, FLAC (tracks+.cue) lossless


 

[Цитировать]

Costantino Mastroprimiano — Frederic Chopin: Early Works-Classical/Piano/Solo • Brilliant Classics • № 94066 • 2010 • lossless • FLAC • tracks+.cue • 01:11:43 • what.cd • scans-01. Polonaise in A flat major WN 3 (dedicated to Zywny) [1821]
02. Rondò in C minor Op. 1 [1825]
03. Mazurka in G major WN 8 [1825-26]
04. Mazurka in B flat major WN 7 [1825-26]
05. Polonaise in B flat minor WN 10 [1826]
06. Rondò à la Mazur in F major Op. 5 [1826]
07. 3 Polonaises Op. 71 [1827-29]: No. 1 in D minor WN 6
08. 3 Polonaises Op. 71 [1827-29]: No. 2 in F minor WN 9
09. 3 Polonaises Op. 71 [1827-29]: No. 3 in B flat major WN 14
10. Polonaise in G flat major WN 35 [1829]
11. Variations in A major "Souvenir de Paganini" WN 16 [1829]
12. "Casta Diva" from V. Bellini's "Norma" [transcription for P. Viardot]
-Costantino Mastroprimiano - piano (Graf Piano, Vienna 1826)
Recorded: Palazzo Contucci, Montepulciano, 16-17 october 2009, in 160th anniversary of Chopin's death-

cue

TITLE "Fryderyk Chopin - Early Works - Costantino Mastroprimiano - Graf Piano (Vienna 1826) [Brilliant Classics]"
PERFORMER "Costantino Mastroprimiano"
REM GENRE "Classical"
REM DATE "2009"
REM DISCNUMBER 1
REM TOTALDISCS 1
REM DISCID BC10CF0C
REM REPLAYGAIN_ALBUM_GAIN 0.22 dB
REM REPLAYGAIN_ALBUM_PEAK 0.925232
FILE "01 Polonaise in A flat major WN 3 (dedicated to Zywny) [1821].flac" WAVE
TRACK 01 AUDIO
TITLE "Polonaise in A flat major WN 3 (dedicated to Zywny) [1821]"
PERFORMER "Costantino Mastroprimiano"
SONGWRITER "Frédéric Chopin"
REM COMMENT "Fortepiano (Conrad Graf, Vienna, 1826): Costantino Mastroprimiano. Tuning: Ugo Casiglia; a'=430 hz. Recorded: Palazzo Contucci, Montepulciano (SI), 16-17 October 2009, in 160th anniversary of Chopin's death."
REM REPLAYGAIN_TRACK_GAIN 1.17 dB
REM REPLAYGAIN_TRACK_PEAK 0.635986
INDEX 01 00:00:00
FILE "02 Rondò in C minor Op. 1 [1825].flac" WAVE
TRACK 02 AUDIO
TITLE "Rondò in C minor Op. 1 [1825]"
PERFORMER "Costantino Mastroprimiano"
SONGWRITER "Frédéric Chopin"
REM COMMENT "Fortepiano (Conrad Graf, Vienna, 1826): Costantino Mastroprimiano. Tuning: Ugo Casiglia; a'=430 hz. Recorded: Palazzo Contucci, Montepulciano (SI), 16-17 October 2009, in 160th anniversary of Chopin's death."
REM REPLAYGAIN_TRACK_GAIN -0.33 dB
REM REPLAYGAIN_TRACK_PEAK 0.925232
INDEX 01 00:00:00
FILE "03 Mazurka in G major WN 8 [1825-26].flac" WAVE
TRACK 03 AUDIO
TITLE "Mazurka in G major WN 8 [1825-26]"
PERFORMER "Costantino Mastroprimiano"
SONGWRITER "Frédéric Chopin"
REM COMMENT "Fortepiano (Conrad Graf, Vienna, 1826): Costantino Mastroprimiano. Tuning: Ugo Casiglia; a'=430 hz. Recorded: Palazzo Contucci, Montepulciano (SI), 16-17 October 2009, in 160th anniversary of Chopin's death."
REM REPLAYGAIN_TRACK_GAIN -1.79 dB
REM REPLAYGAIN_TRACK_PEAK 0.763855
INDEX 01 00:00:00
FILE "04 Mazurka in B flat major WN 7 [1825-26].flac" WAVE
TRACK 04 AUDIO
TITLE "Mazurka in B flat major WN 7 [1825-26]"
PERFORMER "Costantino Mastroprimiano"
SONGWRITER "Frédéric Chopin"
REM COMMENT "Fortepiano (Conrad Graf, Vienna, 1826): Costantino Mastroprimiano. Tuning: Ugo Casiglia; a'=430 hz. Recorded: Palazzo Contucci, Montepulciano (SI), 16-17 October 2009, in 160th anniversary of Chopin's death."
REM REPLAYGAIN_TRACK_GAIN 1.93 dB
REM REPLAYGAIN_TRACK_PEAK 0.559418
INDEX 01 00:00:00
FILE "05 Polonaise in B flat minor WN 10 [1826].flac" WAVE
TRACK 05 AUDIO
TITLE "Polonaise in B flat minor WN 10 [1826]"
PERFORMER "Costantino Mastroprimiano"
SONGWRITER "Frédéric Chopin"
REM COMMENT "Fortepiano (Conrad Graf, Vienna, 1826): Costantino Mastroprimiano. Tuning: Ugo Casiglia; a'=430 hz. Recorded: Palazzo Contucci, Montepulciano (SI), 16-17 October 2009, in 160th anniversary of Chopin's death."
REM REPLAYGAIN_TRACK_GAIN -0.32 dB
REM REPLAYGAIN_TRACK_PEAK 0.869202
INDEX 01 00:00:00
FILE "06 Rondò à la Mazur in F major Op. 5 [1826].flac" WAVE
TRACK 06 AUDIO
TITLE "Rondò à la Mazur in F major Op. 5 [1826]"
PERFORMER "Costantino Mastroprimiano"
SONGWRITER "Frédéric Chopin"
REM COMMENT "Fortepiano (Conrad Graf, Vienna, 1826): Costantino Mastroprimiano. Tuning: Ugo Casiglia; a'=430 hz. Recorded: Palazzo Contucci, Montepulciano (SI), 16-17 October 2009, in 160th anniversary of Chopin's death."
REM REPLAYGAIN_TRACK_GAIN 0.46 dB
REM REPLAYGAIN_TRACK_PEAK 0.851990
INDEX 01 00:00:00
FILE "07 3 Polonaises Op. 71 [1827-29]: No. 1 in D minor WN 6.flac" WAVE
TRACK 07 AUDIO
TITLE "3 Polonaises Op. 71 [1827-29]: No. 1 in D minor WN 6"
PERFORMER "Costantino Mastroprimiano"
SONGWRITER "Frédéric Chopin"
REM COMMENT "Fortepiano (Conrad Graf, Vienna, 1826): Costantino Mastroprimiano. Tuning: Ugo Casiglia; a'=430 hz. Recorded: Palazzo Contucci, Montepulciano (SI), 16-17 October 2009, in 160th anniversary of Chopin's death."
REM REPLAYGAIN_TRACK_GAIN -0.41 dB
REM REPLAYGAIN_TRACK_PEAK 0.810638
INDEX 01 00:00:00
FILE "08 3 Polonaises Op. 71 [1827-29]: No. 2 in F minor WN 9.flac" WAVE
TRACK 08 AUDIO
TITLE "3 Polonaises Op. 71 [1827-29]: No. 2 in F minor WN 9"
PERFORMER "Costantino Mastroprimiano"
SONGWRITER "Frédéric Chopin"
REM COMMENT "Fortepiano (Conrad Graf, Vienna, 1826): Costantino Mastroprimiano. Tuning: Ugo Casiglia; a'=430 hz. Recorded: Palazzo Contucci, Montepulciano (SI), 16-17 October 2009, in 160th anniversary of Chopin's death."
REM REPLAYGAIN_TRACK_GAIN 1.48 dB
REM REPLAYGAIN_TRACK_PEAK 0.742584
INDEX 01 00:00:00
FILE "09 3 Polonaises Op. 71 [1827-29]: No. 3 in B flat major WN 14.flac" WAVE
TRACK 09 AUDIO
TITLE "3 Polonaises Op. 71 [1827-29]: No. 3 in B flat major WN 14"
PERFORMER "Costantino Mastroprimiano"
SONGWRITER "Frédéric Chopin"
REM COMMENT "Fortepiano (Conrad Graf, Vienna, 1826): Costantino Mastroprimiano. Tuning: Ugo Casiglia; a'=430 hz. Recorded: Palazzo Contucci, Montepulciano (SI), 16-17 October 2009, in 160th anniversary of Chopin's death."
REM REPLAYGAIN_TRACK_GAIN 1.82 dB
REM REPLAYGAIN_TRACK_PEAK 0.694092
INDEX 01 00:00:00
FILE "10 Polonaise in G flat major WN 35 [1829].flac" WAVE
TRACK 10 AUDIO
TITLE "Polonaise in G flat major WN 35 [1829]"
PERFORMER "Costantino Mastroprimiano"
SONGWRITER "Frédéric Chopin"
REM COMMENT "Fortepiano (Conrad Graf, Vienna, 1826): Costantino Mastroprimiano. Tuning: Ugo Casiglia; a'=430 hz. Recorded: Palazzo Contucci, Montepulciano (SI), 16-17 October 2009, in 160th anniversary of Chopin's death."
REM REPLAYGAIN_TRACK_GAIN -1.38 dB
REM REPLAYGAIN_TRACK_PEAK 0.877319
INDEX 01 00:00:00
FILE "11 Variations in A major ''Souvenir de Paganini'' WN 16 [1829].flac" WAVE
TRACK 11 AUDIO
TITLE "Variations in A major "Souvenir de Paganini" WN 16 [1829]"
PERFORMER "Costantino Mastroprimiano"
SONGWRITER "Frédéric Chopin"
REM COMMENT "Fortepiano (Conrad Graf, Vienna, 1826): Costantino Mastroprimiano. Tuning: Ugo Casiglia; a'=430 hz. Recorded: Palazzo Contucci, Montepulciano (SI), 16-17 October 2009, in 160th anniversary of Chopin's death."
REM REPLAYGAIN_TRACK_GAIN 4.61 dB
REM REPLAYGAIN_TRACK_PEAK 0.617706
INDEX 01 00:00:00
FILE "12 ''Casta Diva'' from V. Bellini's ''Norma''.flac" WAVE
TRACK 12 AUDIO
TITLE ""Casta Diva" from V. Bellini's "Norma" [transcription for P. Viardot]"
PERFORMER "Costantino Mastroprimiano"
SONGWRITER "Frédéric Chopin"
REM COMMENT "Fortepiano (Conrad Graf, Vienna, 1826): Costantino Mastroprimiano. Tuning: Ugo Casiglia; a'=430 hz. Recorded: Palazzo Contucci, Montepulciano (SI), 16-17 October 2009, in 160th anniversary of Chopin's death."
REM REPLAYGAIN_TRACK_GAIN 2.84 dB
REM REPLAYGAIN_TRACK_PEAK 0.583252
INDEX 01 00:00:00

EAC

X Lossless Decoder version 20141129 (148.1)
XLD extraction logfile from 2015-04-20 12:07:47 +0200
Costantino Mastroprimiano / Fryderyk Chopin - Early Works - Costantino Mastroprimiano - Graf Piano (Vienna 1826) [Brilliant Classics]
Used drive : TSSTcorp CDDVDW SE-S084D (revision TS01)
Media type : Pressed CD
Ripper mode : XLD Secure Ripper
Disable audio cache : OK for the drive with a cache less than 1375KiB
Make use of C2 pointers : NO
Read offset correction : 6
Max retry count : 100
Gap status : Analyzed, Appended (except HTOA)
TOC of the extracted CD
Track | Start | Length | Start sector | End sector
---------------------------------------------------------
1 | 00:00:00 | 04:05:06 | 0 | 18380
2 | 04:05:06 | 09:17:58 | 18381 | 60213
3 | 13:22:64 | 01:06:34 | 60214 | 65197
4 | 14:29:23 | 01:34:15 | 65198 | 72262
5 | 16:03:38 | 06:18:64 | 72263 | 100676
6 | 22:22:27 | 10:29:35 | 100677 | 147886
7 | 32:51:62 | 06:27:60 | 147887 | 176971
8 | 39:19:47 | 10:06:33 | 176972 | 222454
9 | 49:26:05 | 07:00:72 | 222455 | 254026
10 | 56:27:02 | 08:17:74 | 254027 | 291375
11 | 64:45:01 | 03:53:67 | 291376 | 308917
12 | 68:38:68 | 03:04:36 | 308918 | 322753
AccurateRip Summary (DiscID: 001f2522-012a3b2e-bc10cf0c)
Track 01 : OK (v2, confidence 2/2)
Track 02 : OK (v2, confidence 2/2)
Track 03 : OK (v2, confidence 2/2)
Track 04 : OK (v2, confidence 2/2)
Track 05 : OK (v2, confidence 2/2)
Track 06 : OK (v2, confidence 2/2)
Track 07 : OK (v2, confidence 2/2)
Track 08 : OK (v2, confidence 2/2)
Track 09 : OK (v2, confidence 2/2)
Track 10 : OK (v2, confidence 2/2)
Track 11 : OK (v2, confidence 2/2)
Track 12 : OK (v2, confidence 2/2)
->All tracks accurately ripped.
All Tracks
Album gain : 0.22 dB
Peak : 0.925232
Statistics
Read error : 0
Jitter error (maybe fixed) : 0
Retry sector count : 0
Damaged sector count : 0
Track 01
Filename : /Volumes/4TB 1/Fryderyk Chopin - Early Works - Costantino Mastroprimiano - Graf Piano (Vienna 1826) [Brilliant Classics]/01 Polonaise in A flat major WN 3 (dedicated to Zywny) [1821].flac
Pre-gap length : 00:02:00
Track gain : 1.17 dB
Peak : 0.635986
CRC32 hash (test run) : 0D79E0DE
CRC32 hash : 0D79E0DE
CRC32 hash (skip zero) : 32BB376E
AccurateRip v1 signature : FC8AAC74
AccurateRip v2 signature : 462910EC
->Accurately ripped (v2, confidence 2/2)
Statistics
Read error : 0
Jitter error (maybe fixed) : 0
Retry sector count : 0
Damaged sector count : 0
Track 02
Filename : /Volumes/4TB 1/Fryderyk Chopin - Early Works - Costantino Mastroprimiano - Graf Piano (Vienna 1826) [Brilliant Classics]/02 Rondò in C minor Op. 1 [1825].flac
Track gain : -0.33 dB
Peak : 0.925232
CRC32 hash (test run) : 2E0AB183
CRC32 hash : 2E0AB183
CRC32 hash (skip zero) : CAC93DB3
AccurateRip v1 signature : 3632FFBE
AccurateRip v2 signature : 6E26B467
->Accurately ripped (v2, confidence 2/2)
Statistics
Read error : 0
Jitter error (maybe fixed) : 0
Retry sector count : 0
Damaged sector count : 0
Track 03
Filename : /Volumes/4TB 1/Fryderyk Chopin - Early Works - Costantino Mastroprimiano - Graf Piano (Vienna 1826) [Brilliant Classics]/03 Mazurka in G major WN 8 [1825-26].flac
Track gain : -1.79 dB
Peak : 0.763855
CRC32 hash (test run) : EF32C097
CRC32 hash : EF32C097
CRC32 hash (skip zero) : D79824FD
AccurateRip v1 signature : 4447DD9D
AccurateRip v2 signature : 2D3D6B02
->Accurately ripped (v2, confidence 2/2)
Statistics
Read error : 0
Jitter error (maybe fixed) : 0
Retry sector count : 0
Damaged sector count : 0
Track 04
Filename : /Volumes/4TB 1/Fryderyk Chopin - Early Works - Costantino Mastroprimiano - Graf Piano (Vienna 1826) [Brilliant Classics]/04 Mazurka in B flat major WN 7 [1825-26].flac
Track gain : 1.93 dB
Peak : 0.559418
CRC32 hash (test run) : 308AF973
CRC32 hash : 308AF973
CRC32 hash (skip zero) : DCE4098A
AccurateRip v1 signature : 9C3E7A0F
AccurateRip v2 signature : 4D527187
->Accurately ripped (v2, confidence 2/2)
Statistics
Read error : 0
Jitter error (maybe fixed) : 0
Retry sector count : 0
Damaged sector count : 0
Track 05
Filename : /Volumes/4TB 1/Fryderyk Chopin - Early Works - Costantino Mastroprimiano - Graf Piano (Vienna 1826) [Brilliant Classics]/05 Polonaise in B flat minor WN 10 [1826].flac
Track gain : -0.32 dB
Peak : 0.869202
CRC32 hash (test run) : 3ECF60A1
CRC32 hash : 3ECF60A1
CRC32 hash (skip zero) : DFEAF0AF
AccurateRip v1 signature : 5BC68DE9
AccurateRip v2 signature : 9053DB60
->Accurately ripped (v2, confidence 2/2)
Statistics
Read error : 0
Jitter error (maybe fixed) : 0
Retry sector count : 0
Damaged sector count : 0
Track 06
Filename : /Volumes/4TB 1/Fryderyk Chopin - Early Works - Costantino Mastroprimiano - Graf Piano (Vienna 1826) [Brilliant Classics]/06 Rondò à la Mazur in F major Op. 5 [1826].flac
Track gain : 0.46 dB
Peak : 0.851990
CRC32 hash (test run) : DCAC62C6
CRC32 hash : DCAC62C6
CRC32 hash (skip zero) : F1284CEC
AccurateRip v1 signature : 1B633AA7
AccurateRip v2 signature : 8D06A9E5
->Accurately ripped (v2, confidence 2/2)
Statistics
Read error : 0
Jitter error (maybe fixed) : 0
Retry sector count : 0
Damaged sector count : 0
Track 07
Filename : /Volumes/4TB 1/Fryderyk Chopin - Early Works - Costantino Mastroprimiano - Graf Piano (Vienna 1826) [Brilliant Classics]/07 3 Polonaises Op. 71 [1827-29]: No. 1 in D minor WN 6.flac
Track gain : -0.41 dB
Peak : 0.810638
CRC32 hash (test run) : D023BE96
CRC32 hash : D023BE96
CRC32 hash (skip zero) : 25072C49
AccurateRip v1 signature : 656A2FE2
AccurateRip v2 signature : 7A09B477
->Accurately ripped (v2, confidence 2/2)
Statistics
Read error : 0
Jitter error (maybe fixed) : 0
Retry sector count : 0
Damaged sector count : 0
Track 08
Filename : /Volumes/4TB 1/Fryderyk Chopin - Early Works - Costantino Mastroprimiano - Graf Piano (Vienna 1826) [Brilliant Classics]/08 3 Polonaises Op. 71 [1827-29]: No. 2 in F minor WN 9.flac
Track gain : 1.48 dB
Peak : 0.742584
CRC32 hash (test run) : 499384C9
CRC32 hash : 499384C9
CRC32 hash (skip zero) : 2280BFFE
AccurateRip v1 signature : A4A16B77
AccurateRip v2 signature : 67A697BA
->Accurately ripped (v2, confidence 2/2)
Statistics
Read error : 0
Jitter error (maybe fixed) : 0
Retry sector count : 0
Damaged sector count : 0
Track 09
Filename : /Volumes/4TB 1/Fryderyk Chopin - Early Works - Costantino Mastroprimiano - Graf Piano (Vienna 1826) [Brilliant Classics]/09 3 Polonaises Op. 71 [1827-29]: No. 3 in B flat major WN 14.flac
Track gain : 1.82 dB
Peak : 0.694092
CRC32 hash (test run) : 2130A5A4
CRC32 hash : 2130A5A4
CRC32 hash (skip zero) : 80FAFBBD
AccurateRip v1 signature : A86A390B
AccurateRip v2 signature : 3F8DF636
->Accurately ripped (v2, confidence 2/2)
Statistics
Read error : 0
Jitter error (maybe fixed) : 0
Retry sector count : 0
Damaged sector count : 0
Track 10
Filename : /Volumes/4TB 1/Fryderyk Chopin - Early Works - Costantino Mastroprimiano - Graf Piano (Vienna 1826) [Brilliant Classics]/10 Polonaise in G flat major WN 35 [1829].flac
Track gain : -1.38 dB
Peak : 0.877319
CRC32 hash (test run) : 651F0942
CRC32 hash : 651F0942
CRC32 hash (skip zero) : BC455223
AccurateRip v1 signature : 0F7A4380
AccurateRip v2 signature : 24663591
->Accurately ripped (v2, confidence 2/2)
Statistics
Read error : 0
Jitter error (maybe fixed) : 0
Retry sector count : 0
Damaged sector count : 0
Track 11
Filename : /Volumes/4TB 1/Fryderyk Chopin - Early Works - Costantino Mastroprimiano - Graf Piano (Vienna 1826) [Brilliant Classics]/11 Variations in A major ''Souvenir de Paganini'' WN 16 [1829].flac
Track gain : 4.61 dB
Peak : 0.617706
CRC32 hash (test run) : 54E4F3B2
CRC32 hash : 54E4F3B2
CRC32 hash (skip zero) : 5CE89F53
AccurateRip v1 signature : 2D634455
AccurateRip v2 signature : DD053A29
->Accurately ripped (v2, confidence 2/2)
Statistics
Read error : 0
Jitter error (maybe fixed) : 0
Retry sector count : 0
Damaged sector count : 0
Track 12
Filename : /Volumes/4TB 1/Fryderyk Chopin - Early Works - Costantino Mastroprimiano - Graf Piano (Vienna 1826) [Brilliant Classics]/12 ''Casta Diva'' from V. Bellini's ''Norma'' [transcription for P. Viardot].flac
Track gain : 2.84 dB
Peak : 0.583252
CRC32 hash (test run) : ABECB08E
CRC32 hash : ABECB08E
CRC32 hash (skip zero) : 6509A58A
AccurateRip v1 signature : D3C3D03C
AccurateRip v2 signature : B75060C6
->Accurately ripped (v2, confidence 2/2)
Statistics
Read error : 0
Jitter error (maybe fixed) : 0
Retry sector count : 0
Damaged sector count : 0
No errors occurred
End of status report
-----BEGIN XLD SIGNATURE-----
HW83B489aa5uW2EoSP_OmZvN0y5gqFKPQSu3gziFJT0elx.S6fnnAQ8DclvyTbtkuYfnjcfs2NKliLxEkupQPYUmsP7XIMbgqnx_4NS
-----END XLD SIGNATURE-----



Показать сообщения:    

Текущее время: 04-Дек 06:58

Часовой пояс: UTC + 3


Вы не можете начинать темы
Вы не можете отвечать на сообщения
Вы не можете редактировать свои сообщения
Вы не можете удалять свои сообщения
Вы не можете голосовать в опросах
Вы не можете прикреплять файлы к сообщениям
Вы не можете скачивать файлы