(Classical/Chamber) Johannes Brahms: Piano Trios III (Abegg Trio, Sephan Katte) - 2005, FLAC (tracks+.cue) lossless


 

[Цитировать]

Abegg Trio • Sephan Katte — Johannes Brahms: Piano Trios III-Classical/Chamber • Tacet • № 0147-0 • 2005 • lossless • FLAC • tracks+.cue • 01:05:31 • what.cd • scans-01-04. Trio for piano, violin & horn in E-flat major, op.40
05-08. Trio after sextet in G major, op.36
-Abegg Trio - historical instruments: Ulrich Beetz - violine || Birgit Erichson - violoncello || Gerrit Zitterbart - piano
Stephan Katte - naturhorn-

cue

REM GENRE Classical
REM DATE 2005
REM DISCID 620F5B08
REM COMMENT "ExactAudioCopy v1.0b6"
PERFORMER "Abegg Trio, Katte"
TITLE "Brahms, Piano Trios Vol. 3"
FILE "01 - Trio for piano, violin & horn in E-flat major, op.40 - I. Andante-Poco piu animato.wav" WAVE
TRACK 01 AUDIO
TITLE "Trio for piano, violin & horn in E-flat major, op.40 - I. Andante-Poco piu an..."
PERFORMER "Abegg Trio, Katte"
INDEX 01 00:00:00
FILE "02 - Trio for piano, violin & horn in E-flat major, op.40 - II. Scherzo (Allegro).wav" WAVE
TRACK 02 AUDIO
TITLE "Trio for piano, violin & horn in E-flat major, op.40 - II. Scherzo (Allegro)"
PERFORMER "Abegg Trio, Katte"
INDEX 01 00:00:00
FILE "03 - Trio for piano, violin & horn in E-flat major, op.40 - III. Adagio mesto.wav" WAVE
TRACK 03 AUDIO
TITLE "Trio for piano, violin & horn in E-flat major, op.40 - III. Adagio mesto"
PERFORMER "Abegg Trio, Katte"
INDEX 01 00:00:00
FILE "04 - Trio for piano, violin & horn in E-flat major, op.40 - IV. Finale (Allegro con brio).wav" WAVE
TRACK 04 AUDIO
TITLE "Trio for piano, violin & horn in E-flat major, op.40 - IV. Finale (Allegro co..."
PERFORMER "Abegg Trio, Katte"
INDEX 01 00:00:00
TRACK 05 AUDIO
TITLE "Trio after sextet in G major, op.36 - I. Allegro non troppo"
PERFORMER "Abegg Trio, Katte"
INDEX 00 06:36:23
FILE "05 - Trio after sextet in G major, op.36 - I. Allegro non troppo.wav" WAVE
INDEX 01 00:00:00
FILE "06 - Trio after sextet in G major, op.36 - II. Scherzo (Allegro non troppo).wav" WAVE
TRACK 06 AUDIO
TITLE "Trio after sextet in G major, op.36 - II. Scherzo (Allegro non troppo)"
PERFORMER "Abegg Trio, Katte"
INDEX 01 00:00:00
FILE "07 - Trio after sextet in G major, op.36 - III. Poco adagio.wav" WAVE
TRACK 07 AUDIO
TITLE "Trio after sextet in G major, op.36 - III. Poco adagio"
PERFORMER "Abegg Trio, Katte"
INDEX 01 00:00:00
FILE "08 - Trio after sextet in G major, op.36 - IV. Poco allegro.wav" WAVE
TRACK 08 AUDIO
TITLE "Trio after sextet in G major, op.36 - IV. Poco allegro"
PERFORMER "Abegg Trio, Katte"
INDEX 01 00:00:00

EAC

Exact Audio Copy V1.0 beta 6 from 9. April 2015
EAC extraction logfile from 21. May 2015, 18:48
Abegg Trio, Katte / Brahms, Piano Trios Vol. 3
Used drive : TSSTcorpCDDVDW SH-S223F Adapter: 1 ID: 0
Read mode : Secure
Utilize accurate stream : Yes
Defeat audio cache : Yes
Make use of C2 pointers : No
Read offset correction : 6
Overread into Lead-In and Lead-Out : No
Fill up missing offset samples with silence : Yes
Delete leading and trailing silent blocks : No
Null samples used in CRC calculations : Yes
Used interface : Native Win32 interface for Win NT & 2000
Gap handling : Appended to previous track
Used output format : User Defined Encoder
Selected bitrate : 1024 kBit/s
Quality : High
Add ID3 tag : No
Command line compressor : C:\Program Files (x86)\Exact Audio Copy\Flac\flac.exe
Additional command line options : -8 -V -T "ARTIST=%artist%" -T "TITLE=%title%" -T "ALBUM=%albumtitle%" -T "DATE=%year%" -T "TRACKNUMBER=%tracknr%" -T "GENRE=%genre%" -T "PERFORMER=%albuminterpret%" -T "COMPOSER=%composer%" %haslyrics%--tag-from-file=LYRICS="%lyricsfile%"%haslyrics% -T "ALBUMARTIST=%albumartist%" -T "DISCNUMBER=%cdnumber%" -T "TOTALDISCS=%totalcds%" -T "TOTALTRACKS=%numtracks%" -T "COMMENT=%comment%" %source% -o %dest%
TOC of the extracted CD
Track | Start | Length | Start sector | End sector
---------------------------------------------------------
1 | 0:00.00 | 7:01.61 | 0 | 31635
2 | 7:01.61 | 7:22.54 | 31636 | 64839
3 | 14:24.40 | 7:32.28 | 64840 | 98767
4 | 21:56.68 | 6:46.02 | 98768 | 129219
5 | 28:42.70 | 13:15.66 | 129220 | 188910
6 | 41:58.61 | 6:57.11 | 188911 | 220196
7 | 48:55.72 | 8:12.29 | 220197 | 257125
8 | 57:08.26 | 8:22.63 | 257126 | 294838
Track 1
Filename F:\Rips\Brahms - Piano Trios Vol. 3 - Abegg Trio - 2005 - FLAC\01 - Trio for piano, violin & horn in E-flat major, op.40 - I. Andante-Poco piu animato.wav
Pre-gap length 0:00:02.00
Peak level 61.8 %
Extraction speed 5.3 X
Track quality 100.0 %
Test CRC E830B2B3
Copy CRC E830B2B3
Accurately ripped (confidence 2) [C85C1B63] (AR v1)
Copy OK
Track 2
Filename F:\Rips\Brahms - Piano Trios Vol. 3 - Abegg Trio - 2005 - FLAC\02 - Trio for piano, violin & horn in E-flat major, op.40 - II. Scherzo (Allegro).wav
Peak level 75.4 %
Extraction speed 6.1 X
Track quality 100.0 %
Test CRC 2989C81C
Copy CRC 2989C81C
Accurately ripped (confidence 2) [B140B7C3] (AR v1)
Copy OK
Track 3
Filename F:\Rips\Brahms - Piano Trios Vol. 3 - Abegg Trio - 2005 - FLAC\03 - Trio for piano, violin & horn in E-flat major, op.40 - III. Adagio mesto.wav
Peak level 80.4 %
Extraction speed 6.8 X
Track quality 100.0 %
Test CRC DFB8C898
Copy CRC DFB8C898
Accurately ripped (confidence 2) [F10C4E34] (AR v1)
Copy OK
Track 4
Filename F:\Rips\Brahms - Piano Trios Vol. 3 - Abegg Trio - 2005 - FLAC\04 - Trio for piano, violin & horn in E-flat major, op.40 - IV. Finale (Allegro con brio).wav
Peak level 93.0 %
Extraction speed 5.1 X
Track quality 99.9 %
Test CRC 08F82B56
Copy CRC 08F82B56
Accurately ripped (confidence 2) [7A861937] (AR v1)
Copy OK
Track 5
Filename F:\Rips\Brahms - Piano Trios Vol. 3 - Abegg Trio - 2005 - FLAC\05 - Trio after sextet in G major, op.36 - I. Allegro non troppo.wav
Pre-gap length 0:00:09.54
Peak level 77.2 %
Extraction speed 8.5 X
Track quality 100.0 %
Test CRC 60A3522B
Copy CRC 60A3522B
Accurately ripped (confidence 2) [EE816DE6] (AR v1)
Copy OK
Track 6
Filename F:\Rips\Brahms - Piano Trios Vol. 3 - Abegg Trio - 2005 - FLAC\06 - Trio after sextet in G major, op.36 - II. Scherzo (Allegro non troppo).wav
Peak level 92.1 %
Extraction speed 8.8 X
Track quality 100.0 %
Test CRC 200BBE90
Copy CRC 200BBE90
Accurately ripped (confidence 2) [D3217471] (AR v1)
Copy OK
Track 7
Filename F:\Rips\Brahms - Piano Trios Vol. 3 - Abegg Trio - 2005 - FLAC\07 - Trio after sextet in G major, op.36 - III. Poco adagio.wav
Peak level 55.8 %
Extraction speed 9.4 X
Track quality 100.0 %
Test CRC 4941CAF1
Copy CRC 4941CAF1
Accurately ripped (confidence 2) [53E3DA58] (AR v1)
Copy OK
Track 8
Filename F:\Rips\Brahms - Piano Trios Vol. 3 - Abegg Trio - 2005 - FLAC\08 - Trio after sextet in G major, op.36 - IV. Poco allegro.wav
Peak level 75.5 %
Extraction speed 9.9 X
Track quality 100.0 %
Test CRC 5534C682
Copy CRC 5534C682
Accurately ripped (confidence 2) [135E4F00] (AR v1)
Copy OK
All tracks accurately ripped
No errors occurred
End of status report
---- CUETools DB Plugin V2.1.6
[CTDB TOCID: UT9BxEMIvszKpYrlKSrMJ3Yi01s-] found
Submit result: UT9BxEMIvszKpYrlKSrMJ3Yi01s- has been confirmed
Track | CTDB Status
1 | (1/1) Accurately ripped
2 | (1/1) Accurately ripped
3 | (1/1) Accurately ripped
4 | (1/1) Accurately ripped
5 | (1/1) Accurately ripped
6 | (1/1) Accurately ripped
7 | (1/1) Accurately ripped
8 | (1/1) Accurately ripped
==== Log checksum 7D1595699B4FA5AD74D4579BEF38067B6DB71136B4DCC2E73E976F146C8F1D51 ====



Показать сообщения:    

Текущее время: 02-Дек 21:13

Часовой пояс: UTC + 3


Вы не можете начинать темы
Вы не можете отвечать на сообщения
Вы не можете редактировать свои сообщения
Вы не можете удалять свои сообщения
Вы не можете голосовать в опросах
Вы не можете прикреплять файлы к сообщениям
Вы не можете скачивать файлы