(Classical/Chamber) Johannes Brahms: Sonatas for cello and piano; Six lieder transcriptions (Ronald Fuchs, Chanda VanderHart) - 2008, FLAC (tracks+.cue) lossless


 

[Цитировать]

Ronald Fuchs • Chanda VanderHart— Johannes Brahms: Sonatas for cello and piano; Six lieder transcriptions-Classical/Chamber • Brahms museum • 2008 • lossless • FLAC • tracks+.cue • 01:11:56 • what.cd • scans-01-03. Sonata for cello and piano in E minor Op. 38
04-07. Sonata for cello and piano in F major Op. 99
08-13. Six lieder transcriptions for cello and piano
-Ronald Fuchs - cello (Giovanni Battista Gaibisso, Allasio, 1911) || Chanda VanderHart - piano (Johann Baptist Streicher & Sohn, Vein. 1880)
Recorded: July 25-28, 2008. First recording of the Brahms Museum on the "Brahms-Piano"-

cue

TITLE "Johannes Brahms - Sonatas for cello and piano • Six lieder transcriptions - Chanda VanderHart, Klavier • Ronald Fuchs, Violoncello - Premiere recording of the "Brahms-piano" Johann Baptist Streicher & Son 1880 [Brahms Museum Mürzzuschlag]"
PERFORMER "Ronald Fuchs/Chanda VanderHart"
REM GENRE "Classical"
REM DATE "2008"
REM DISCNUMBER 1
REM TOTALDISCS 1
REM DISCID CD10DC0D
REM REPLAYGAIN_ALBUM_GAIN -0.22 dB
REM REPLAYGAIN_ALBUM_PEAK 0.988586
FILE "01 Sonata for cello and piano in E minor Op. 38: I. Allegro non troppo.flac" WAVE
TRACK 01 AUDIO
TITLE "Sonata for cello and piano in E minor Op. 38: I. Allegro non troppo"
PERFORMER "Ronald Fuchs/Chanda VanderHart"
SONGWRITER "Johannes Brahms"
REM COMMENT "Cello (Giovanni Battista Gaibisso, Alassio 1911): Ronald Fuchs/Piano ("Brahms-piano", Johann Baptist Streicher & Sohn, Vienna 1880): Chanda VanderHart. Recorded 26-28 July 2008 in the "Kunsthaus" Mürzzuschlag."
REM REPLAYGAIN_TRACK_GAIN -0.86 dB
REM REPLAYGAIN_TRACK_PEAK 0.988586
INDEX 01 00:00:00
FILE "02 Sonata for cello and piano in E minor Op. 38: II. Allegretto quasi Menuetto.flac" WAVE
TRACK 02 AUDIO
TITLE "Sonata for cello and piano in E minor Op. 38: II. Allegretto quasi Menuetto"
PERFORMER "Ronald Fuchs/Chanda VanderHart"
SONGWRITER "Johannes Brahms"
REM COMMENT "Cello (Giovanni Battista Gaibisso, Alassio 1911): Ronald Fuchs/Piano ("Brahms-piano", Johann Baptist Streicher & Sohn, Vienna 1880): Chanda VanderHart. Recorded 26-28 July 2008 in the "Kunsthaus" Mürzzuschlag."
REM REPLAYGAIN_TRACK_GAIN 1.64 dB
REM REPLAYGAIN_TRACK_PEAK 0.798431
INDEX 01 00:00:00
FILE "03 Sonata for cello and piano in E minor Op. 38: III. Allegro.flac" WAVE
TRACK 03 AUDIO
TITLE "Sonata for cello and piano in E minor Op. 38: III. Allegro"
PERFORMER "Ronald Fuchs/Chanda VanderHart"
SONGWRITER "Johannes Brahms"
REM COMMENT "Cello (Giovanni Battista Gaibisso, Alassio 1911): Ronald Fuchs/Piano ("Brahms-piano", Johann Baptist Streicher & Sohn, Vienna 1880): Chanda VanderHart. Recorded 26-28 July 2008 in the "Kunsthaus" Mürzzuschlag."
REM REPLAYGAIN_TRACK_GAIN -1.08 dB
REM REPLAYGAIN_TRACK_PEAK 0.988556
INDEX 01 00:00:00
TRACK 04 AUDIO
TITLE "Sonata for cello and piano in F major Op. 99: I. Allegro vivace"
PERFORMER "Ronald Fuchs/Chanda VanderHart"
SONGWRITER "Johannes Brahms"
REM COMMENT "Cello (Giovanni Battista Gaibisso, Alassio 1911): Ronald Fuchs/Piano ("Brahms-piano", Johann Baptist Streicher & Sohn, Vienna 1880): Chanda VanderHart. Recorded 26-28 July 2008 in the "Kunsthaus" Mürzzuschlag."
REM REPLAYGAIN_TRACK_GAIN -1.00 dB
REM REPLAYGAIN_TRACK_PEAK 0.988556
INDEX 00 07:23:60
FILE "04 Sonata for cello and piano in F major Op. 99: I. Allegro vivace.flac" WAVE
INDEX 01 00:00:00
FILE "05 Sonata for cello and piano in F major Op. 99: II. Adagio affettuoso.flac" WAVE
TRACK 05 AUDIO
TITLE "Sonata for cello and piano in F major Op. 99: II. Adagio affettuoso"
PERFORMER "Ronald Fuchs/Chanda VanderHart"
SONGWRITER "Johannes Brahms"
REM COMMENT "Cello (Giovanni Battista Gaibisso, Alassio 1911): Ronald Fuchs/Piano ("Brahms-piano", Johann Baptist Streicher & Sohn, Vienna 1880): Chanda VanderHart. Recorded 26-28 July 2008 in the "Kunsthaus" Mürzzuschlag."
REM REPLAYGAIN_TRACK_GAIN 3.34 dB
REM REPLAYGAIN_TRACK_PEAK 0.862732
INDEX 01 00:00:00
FILE "06 Sonata for cello and piano in F major Op. 99: III. Allegro passionato.flac" WAVE
TRACK 06 AUDIO
TITLE "Sonata for cello and piano in F major Op. 99: III. Allegro passionato"
PERFORMER "Ronald Fuchs/Chanda VanderHart"
SONGWRITER "Johannes Brahms"
REM COMMENT "Cello (Giovanni Battista Gaibisso, Alassio 1911): Ronald Fuchs/Piano ("Brahms-piano", Johann Baptist Streicher & Sohn, Vienna 1880): Chanda VanderHart. Recorded 26-28 July 2008 in the "Kunsthaus" Mürzzuschlag."
REM REPLAYGAIN_TRACK_GAIN -1.26 dB
REM REPLAYGAIN_TRACK_PEAK 0.988556
INDEX 01 00:00:00
FILE "07 Sonata for cello and piano in F major Op. 99: IV. Allegro molto.flac" WAVE
TRACK 07 AUDIO
TITLE "Sonata for cello and piano in F major Op. 99: IV. Allegro molto"
PERFORMER "Ronald Fuchs/Chanda VanderHart"
SONGWRITER "Johannes Brahms"
REM COMMENT "Cello (Giovanni Battista Gaibisso, Alassio 1911): Ronald Fuchs/Piano ("Brahms-piano", Johann Baptist Streicher & Sohn, Vienna 1880): Chanda VanderHart. Recorded 26-28 July 2008 in the "Kunsthaus" Mürzzuschlag."
REM REPLAYGAIN_TRACK_GAIN -0.81 dB
REM REPLAYGAIN_TRACK_PEAK 0.892609
INDEX 01 00:00:00
TRACK 08 AUDIO
TITLE "Six lieder transcriptions for cello and piano: "Der Tod, das is die kühle Nacht" Op. 96 No. 1"
PERFORMER "Ronald Fuchs/Chanda VanderHart"
SONGWRITER "Johannes Brahms"
REM COMMENT "Cello (Giovanni Battista Gaibisso, Alassio 1911): Ronald Fuchs/Piano ("Brahms-piano", Johann Baptist Streicher & Sohn, Vienna 1880): Chanda VanderHart. Recorded 26-28 July 2008 in the "Kunsthaus" Mürzzuschlag."
REM REPLAYGAIN_TRACK_GAIN 4.77 dB
REM REPLAYGAIN_TRACK_PEAK 0.545929
INDEX 00 04:56:36
FILE "08 Six lieder transcriptions: ''Der Tod, das is die kühle Nacht'' Op. 96 No. 1.flac" WAVE
INDEX 01 00:00:00
FILE "09 Six lieder transcriptions: ''Wie Melodien zieht es mir'' Op. 105 No. 1.flac" WAVE
TRACK 09 AUDIO
TITLE "Six lieder transcriptions for cello and piano: "Wie Melodien zieht es mir" Op. 105 No. 1"
PERFORMER "Ronald Fuchs/Chanda VanderHart"
SONGWRITER "Johannes Brahms"
REM COMMENT "Cello (Giovanni Battista Gaibisso, Alassio 1911): Ronald Fuchs/Piano ("Brahms-piano", Johann Baptist Streicher & Sohn, Vienna 1880): Chanda VanderHart. Recorded 26-28 July 2008 in the "Kunsthaus" Mürzzuschlag."
REM REPLAYGAIN_TRACK_GAIN 4.21 dB
REM REPLAYGAIN_TRACK_PEAK 0.395935
INDEX 01 00:00:00
FILE "10 Six lieder transcriptions: ''Sapphische Ode'' Op. 94 No. 4.flac" WAVE
TRACK 10 AUDIO
TITLE "Six lieder transcriptions for cello and piano: "Sapphische Ode" Op. 94 No. 4"
PERFORMER "Ronald Fuchs/Chanda VanderHart"
SONGWRITER "Johannes Brahms"
REM COMMENT "Cello (Giovanni Battista Gaibisso, Alassio 1911): Ronald Fuchs/Piano ("Brahms-piano", Johann Baptist Streicher & Sohn, Vienna 1880): Chanda VanderHart. Recorded 26-28 July 2008 in the "Kunsthaus" Mürzzuschlag."
REM REPLAYGAIN_TRACK_GAIN 6.05 dB
REM REPLAYGAIN_TRACK_PEAK 0.350677
INDEX 01 00:00:00
FILE "11 Six lieder transcriptions: ''Meine Liebe ist grün'' Op. 63 No. 5.flac" WAVE
TRACK 11 AUDIO
TITLE "Six lieder transcriptions for cello and piano: "Meine Liebe ist grün" Op. 63 No. 5"
PERFORMER "Ronald Fuchs/Chanda VanderHart"
SONGWRITER "Johannes Brahms"
REM COMMENT "Cello (Giovanni Battista Gaibisso, Alassio 1911): Ronald Fuchs/Piano ("Brahms-piano", Johann Baptist Streicher & Sohn, Vienna 1880): Chanda VanderHart. Recorded 26-28 July 2008 in the "Kunsthaus" Mürzzuschlag."
REM REPLAYGAIN_TRACK_GAIN -1.69 dB
REM REPLAYGAIN_TRACK_PEAK 0.988525
INDEX 01 00:00:00
FILE "12 Six lieder transcriptions: ''Liebestreu'' Op. 3 No. 1.flac" WAVE
TRACK 12 AUDIO
TITLE "Six lieder transcriptions for cello and piano: "Liebestreu" Op. 3 No. 1"
PERFORMER "Ronald Fuchs/Chanda VanderHart"
SONGWRITER "Johannes Brahms"
REM COMMENT "Cello (Giovanni Battista Gaibisso, Alassio 1911): Ronald Fuchs/Piano ("Brahms-piano", Johann Baptist Streicher & Sohn, Vienna 1880): Chanda VanderHart. Recorded 26-28 July 2008 in the "Kunsthaus" Mürzzuschlag."
REM REPLAYGAIN_TRACK_GAIN 0.49 dB
REM REPLAYGAIN_TRACK_PEAK 0.701538
INDEX 01 00:00:00
FILE "13 Six lieder transcriptions: ''An eine Aeolsharfe'' Op. 19 No. 5.flac" WAVE
TRACK 13 AUDIO
TITLE "Six lieder transcriptions for cello and piano: "An eine Aeolsharfe" Op. 19 No. 5"
PERFORMER "Ronald Fuchs/Chanda VanderHart"
SONGWRITER "Johannes Brahms"
REM COMMENT "Cello (Giovanni Battista Gaibisso, Alassio 1911): Ronald Fuchs/Piano ("Brahms-piano", Johann Baptist Streicher & Sohn, Vienna 1880): Chanda VanderHart. Recorded 26-28 July 2008 in the "Kunsthaus" Mürzzuschlag."
REM REPLAYGAIN_TRACK_GAIN 4.87 dB
REM REPLAYGAIN_TRACK_PEAK 0.568970
INDEX 01 00:00:00

EAC

X Lossless Decoder version 20141129 (148.1)
XLD extraction logfile from 2015-05-27 16:13:48 +0200
Ronald Fuchs/Chanda VanderHart / Johannes Brahms - Sonatas for cello and piano • Six lieder transcriptions - Chanda VanderHart, Klavier • Ronald Fuchs, Violoncello - Premiere recording of the "Brahms-piano" Johann Baptist Streicher & Son 1880 [Brahms Museum Mürzzuschlag]
Used drive : TSSTcorp CDDVDW SE-S084D (revision TS01)
Media type : Pressed CD
Ripper mode : XLD Secure Ripper
Disable audio cache : OK for the drive with a cache less than 1375KiB
Make use of C2 pointers : NO
Read offset correction : 6
Max retry count : 100
Gap status : Analyzed, Appended (except HTOA)
TOC of the extracted CD
Track | Start | Length | Start sector | End sector
---------------------------------------------------------
1 | 00:00:00 | 15:20:16 | 0 | 69015
2 | 15:20:16 | 06:08:25 | 69016 | 96640
3 | 21:28:41 | 07:30:15 | 96641 | 130405
4 | 28:58:56 | 08:53:12 | 130406 | 170392
5 | 37:51:68 | 06:53:10 | 170393 | 201377
6 | 44:45:03 | 08:14:36 | 201378 | 238463
7 | 52:59:39 | 05:03:46 | 238464 | 261234
8 | 58:03:10 | 02:21:28 | 261235 | 271837
9 | 60:24:38 | 02:03:33 | 271838 | 281095
10 | 62:27:71 | 02:12:39 | 281096 | 291034
11 | 64:40:35 | 01:40:54 | 291035 | 298588
12 | 66:21:14 | 02:04:28 | 298589 | 307916
13 | 68:25:42 | 03:30:41 | 307917 | 323707
AccurateRip Summary
Disc not found in AccurateRip DB.
All Tracks
Album gain : -0.22 dB
Peak : 0.988586
Statistics
Read error : 0
Jitter error (maybe fixed) : 0
Retry sector count : 0
Damaged sector count : 0
Track 01
Filename : /Volumes/4TB 1/CD/Johannes Brahms - Sonatas for cello and piano • Six lieder transcriptions - Chanda VanderHart, Klavier • Ronald Fuchs, Violoncello - Premiere recording of the "Brahms-piano" Johann Baptist Streicher & Son 1880 [Brahms Museum Mürzzuschlag]/01 Sonata for cello and piano in E minor Op. 38: I. Allegro non troppo.flac
Pre-gap length : 00:02:00
Track gain : -0.86 dB
Peak : 0.988586
CRC32 hash (test run) : 224227CA
CRC32 hash : 224227CA
CRC32 hash (skip zero) : 7A2E44C2
AccurateRip v1 signature : 43491E4C
AccurateRip v2 signature : E198C9E5
->Track not present in AccurateRip database.
Statistics
Read error : 0
Jitter error (maybe fixed) : 0
Retry sector count : 0
Damaged sector count : 0
Track 02
Filename : /Volumes/4TB 1/CD/Johannes Brahms - Sonatas for cello and piano • Six lieder transcriptions - Chanda VanderHart, Klavier • Ronald Fuchs, Violoncello - Premiere recording of the "Brahms-piano" Johann Baptist Streicher & Son 1880 [Brahms Museum Mürzzuschlag]/02 Sonata for cello and piano in E minor Op. 38: II. Allegretto quasi Menuetto.flac
Track gain : 1.64 dB
Peak : 0.798431
CRC32 hash (test run) : 589FA04F
CRC32 hash : 589FA04F
CRC32 hash (skip zero) : 92F83408
AccurateRip v1 signature : 008F5C74
AccurateRip v2 signature : 2771AE0B
->Track not present in AccurateRip database.
Statistics
Read error : 0
Jitter error (maybe fixed) : 0
Retry sector count : 0
Damaged sector count : 0
Track 03
Filename : /Volumes/4TB 1/CD/Johannes Brahms - Sonatas for cello and piano • Six lieder transcriptions - Chanda VanderHart, Klavier • Ronald Fuchs, Violoncello - Premiere recording of the "Brahms-piano" Johann Baptist Streicher & Son 1880 [Brahms Museum Mürzzuschlag]/03 Sonata for cello and piano in E minor Op. 38: III. Allegro.flac
Track gain : -1.08 dB
Peak : 0.988556
CRC32 hash (test run) : CE03CF86
CRC32 hash : CE03CF86
CRC32 hash (skip zero) : 11972FDA
AccurateRip v1 signature : 7DF1E2D2
AccurateRip v2 signature : 99701DAB
->Track not present in AccurateRip database.
Statistics
Read error : 0
Jitter error (maybe fixed) : 0
Retry sector count : 0
Damaged sector count : 0
Track 04
Filename : /Volumes/4TB 1/CD/Johannes Brahms - Sonatas for cello and piano • Six lieder transcriptions - Chanda VanderHart, Klavier • Ronald Fuchs, Violoncello - Premiere recording of the "Brahms-piano" Johann Baptist Streicher & Son 1880 [Brahms Museum Mürzzuschlag]/04 Sonata for cello and piano in F major Op. 99: I. Allegro vivace.flac
Pre-gap length : 00:06:30
Track gain : -1.00 dB
Peak : 0.988556
CRC32 hash (test run) : DBC06C00
CRC32 hash : DBC06C00
CRC32 hash (skip zero) : 4E7C6A3A
AccurateRip v1 signature : D2F4A27F
AccurateRip v2 signature : 871A263E
->Track not present in AccurateRip database.
Statistics
Read error : 0
Jitter error (maybe fixed) : 0
Retry sector count : 0
Damaged sector count : 0
Track 05
Filename : /Volumes/4TB 1/CD/Johannes Brahms - Sonatas for cello and piano • Six lieder transcriptions - Chanda VanderHart, Klavier • Ronald Fuchs, Violoncello - Premiere recording of the "Brahms-piano" Johann Baptist Streicher & Son 1880 [Brahms Museum Mürzzuschlag]/05 Sonata for cello and piano in F major Op. 99: II. Adagio affettuoso.flac
Track gain : 3.34 dB
Peak : 0.862732
CRC32 hash (test run) : 88795147
CRC32 hash : 88795147
CRC32 hash (skip zero) : 1841A1F7
AccurateRip v1 signature : 898BE869
AccurateRip v2 signature : FCC662B4
->Track not present in AccurateRip database.
Statistics
Read error : 0
Jitter error (maybe fixed) : 0
Retry sector count : 0
Damaged sector count : 0
Track 06
Filename : /Volumes/4TB 1/CD/Johannes Brahms - Sonatas for cello and piano • Six lieder transcriptions - Chanda VanderHart, Klavier • Ronald Fuchs, Violoncello - Premiere recording of the "Brahms-piano" Johann Baptist Streicher & Son 1880 [Brahms Museum Mürzzuschlag]/06 Sonata for cello and piano in F major Op. 99: III. Allegro passionato.flac
Track gain : -1.26 dB
Peak : 0.988556
CRC32 hash (test run) : D23AB19E
CRC32 hash : D23AB19E
CRC32 hash (skip zero) : E412724E
AccurateRip v1 signature : 782356D5
AccurateRip v2 signature : 60AA9109
->Track not present in AccurateRip database.
Statistics
Read error : 0
Jitter error (maybe fixed) : 0
Retry sector count : 0
Damaged sector count : 0
Track 07
Filename : /Volumes/4TB 1/CD/Johannes Brahms - Sonatas for cello and piano • Six lieder transcriptions - Chanda VanderHart, Klavier • Ronald Fuchs, Violoncello - Premiere recording of the "Brahms-piano" Johann Baptist Streicher & Son 1880 [Brahms Museum Mürzzuschlag]/07 Sonata for cello and piano in F major Op. 99: IV. Allegro molto.flac
Track gain : -0.81 dB
Peak : 0.892609
CRC32 hash (test run) : EC6CB2C0
CRC32 hash : EC6CB2C0
CRC32 hash (skip zero) : 2F7045BD
AccurateRip v1 signature : 7535CF60
AccurateRip v2 signature : 17B481E9
->Track not present in AccurateRip database.
Statistics
Read error : 0
Jitter error (maybe fixed) : 0
Retry sector count : 0
Damaged sector count : 0
Track 08
Filename : /Volumes/4TB 1/CD/Johannes Brahms - Sonatas for cello and piano • Six lieder transcriptions - Chanda VanderHart, Klavier • Ronald Fuchs, Violoncello - Premiere recording of the "Brahms-piano" Johann Baptist Streicher & Son 1880 [Brahms Museum Mürzzuschlag]/08 Six lieder transcriptions for cello and piano: ''Der Tod, das is die kühle Nacht'' Op. 96 No. 1.flac
Pre-gap length : 00:07:10
Track gain : 4.77 dB
Peak : 0.545929
CRC32 hash (test run) : 28D737D7
CRC32 hash : 28D737D7
CRC32 hash (skip zero) : 01D2A5BD
AccurateRip v1 signature : DE74731D
AccurateRip v2 signature : 3BC0350C
->Track not present in AccurateRip database.
Statistics
Read error : 0
Jitter error (maybe fixed) : 0
Retry sector count : 0
Damaged sector count : 0
Track 09
Filename : /Volumes/4TB 1/CD/Johannes Brahms - Sonatas for cello and piano • Six lieder transcriptions - Chanda VanderHart, Klavier • Ronald Fuchs, Violoncello - Premiere recording of the "Brahms-piano" Johann Baptist Streicher & Son 1880 [Brahms Museum Mürzzuschlag]/09 Six lieder transcriptions for cello and piano: ''Wie Melodien zieht es mir'' Op. 105 No. 1.flac
Track gain : 4.21 dB
Peak : 0.395935
CRC32 hash (test run) : 47802149
CRC32 hash : 47802149
CRC32 hash (skip zero) : 242190AC
AccurateRip v1 signature : 5ED78BDF
AccurateRip v2 signature : 588A6993
->Track not present in AccurateRip database.
Statistics
Read error : 0
Jitter error (maybe fixed) : 0
Retry sector count : 0
Damaged sector count : 0
Track 10
Filename : /Volumes/4TB 1/CD/Johannes Brahms - Sonatas for cello and piano • Six lieder transcriptions - Chanda VanderHart, Klavier • Ronald Fuchs, Violoncello - Premiere recording of the "Brahms-piano" Johann Baptist Streicher & Son 1880 [Brahms Museum Mürzzuschlag]/10 Six lieder transcriptions for cello and piano: ''Sapphische Ode'' Op. 94 No. 4.flac
Track gain : 6.05 dB
Peak : 0.350677
CRC32 hash (test run) : 3648DC77
CRC32 hash : 3648DC77
CRC32 hash (skip zero) : A195F45B
AccurateRip v1 signature : 9B827CF2
AccurateRip v2 signature : 9DAAD3F7
->Track not present in AccurateRip database.
Statistics
Read error : 0
Jitter error (maybe fixed) : 0
Retry sector count : 0
Damaged sector count : 0
Track 11
Filename : /Volumes/4TB 1/CD/Johannes Brahms - Sonatas for cello and piano • Six lieder transcriptions - Chanda VanderHart, Klavier • Ronald Fuchs, Violoncello - Premiere recording of the "Brahms-piano" Johann Baptist Streicher & Son 1880 [Brahms Museum Mürzzuschlag]/11 Six lieder transcriptions for cello and piano: ''Meine Liebe ist grün'' Op. 63 No. 5.flac
Track gain : -1.69 dB
Peak : 0.988525
CRC32 hash (test run) : E40F0E19
CRC32 hash : E40F0E19
CRC32 hash (skip zero) : 593330F6
AccurateRip v1 signature : 5530E923
AccurateRip v2 signature : 042DC7F8
->Track not present in AccurateRip database.
Statistics
Read error : 0
Jitter error (maybe fixed) : 0
Retry sector count : 0
Damaged sector count : 0
Track 12
Filename : /Volumes/4TB 1/CD/Johannes Brahms - Sonatas for cello and piano • Six lieder transcriptions - Chanda VanderHart, Klavier • Ronald Fuchs, Violoncello - Premiere recording of the "Brahms-piano" Johann Baptist Streicher & Son 1880 [Brahms Museum Mürzzuschlag]/12 Six lieder transcriptions for cello and piano: ''Liebestreu'' Op. 3 No. 1.flac
Track gain : 0.49 dB
Peak : 0.701538
CRC32 hash (test run) : 34BE66E9
CRC32 hash : 34BE66E9
CRC32 hash (skip zero) : 9C177616
AccurateRip v1 signature : 49BCCBFB
AccurateRip v2 signature : 358ACC55
->Track not present in AccurateRip database.
Statistics
Read error : 0
Jitter error (maybe fixed) : 0
Retry sector count : 0
Damaged sector count : 0
Track 13
Filename : /Volumes/4TB 1/CD/Johannes Brahms - Sonatas for cello and piano • Six lieder transcriptions - Chanda VanderHart, Klavier • Ronald Fuchs, Violoncello - Premiere recording of the "Brahms-piano" Johann Baptist Streicher & Son 1880 [Brahms Museum Mürzzuschlag]/13 Six lieder transcriptions for cello and piano: ''An eine Aeolsharfe'' Op. 19 No. 5.flac
Track gain : 4.87 dB
Peak : 0.568970
CRC32 hash (test run) : CB5872BA
CRC32 hash : CB5872BA
CRC32 hash (skip zero) : 63A19227
AccurateRip v1 signature : 649D7A16
AccurateRip v2 signature : A60FB075
->Track not present in AccurateRip database.
Statistics
Read error : 0
Jitter error (maybe fixed) : 0
Retry sector count : 0
Damaged sector count : 0
No errors occurred
End of status report
-----BEGIN XLD SIGNATURE-----
XUYxDRjE0piv.l44_mmtoDAsDUZ9d9S6kGnM0fkarRC4955mU3Q2r9YEfvTF9eiCrlwA2ip2SseAcP7NeQriBPCeNdGKis11XNpp7U4
-----END XLD SIGNATURE-----



Показать сообщения:    

Текущее время: 11-Дек 05:22

Часовой пояс: UTC + 3


Вы не можете начинать темы
Вы не можете отвечать на сообщения
Вы не можете редактировать свои сообщения
Вы не можете удалять свои сообщения
Вы не можете голосовать в опросах
Вы не можете прикреплять файлы к сообщениям
Вы не можете скачивать файлы