(Classical/Chamber) Johann Baptist Vanhal: Three Late String Quartets (Camesina Quartett) - 2012, FLAC (tracks+.cue) lossless


 

[Цитировать]

Camesina Quartet — Johann Baptist Vanhal: Three Late String Quartets-Classical/Chamber • Musikmanufaktur Berlin • MMB CD 419 • 2012 • lossless • FLAC • tracks+.cue • 01:09:35 • what.cd • scans-01-03. String Quartet in E flat major 'Hoffmeister' No.2
04-07. String Quartet in F major Op.33 No.3
08-11. String Quartet in A major Op.33 No.2
-Camesina Quartett (on period instruments):
Johannes Gebauer - violin || Katja Grüttner - violin || Irina Alexandrowna - viola || Martin Burkhardt - cello
Recorded: 2012-

cue

REM GENRE Chamber
REM DATE 2012
REM DISCID 93104F0B
REM COMMENT "ExactAudioCopy v1.0b3"
PERFORMER " Camesina Quartet"
TITLE "Vanhal - 3 Late String Quartets"
FILE "01 String Quartet in E flat major 'Hoffmeister' No.2 - I. Allegro con fuoco.flac" WAVE
TRACK 01 AUDIO
TITLE "String Quartet in E flat major 'Hoffmeister' No.2 - I. Allegro con fuoco"
PERFORMER " Camesina Quartet"
INDEX 01 00:00:00
FILE "02 String Quartet in E flat major 'Hoffmeister' No.2 - II. Adagio.flac" WAVE
TRACK 02 AUDIO
TITLE "String Quartet in E flat major 'Hoffmeister' No.2 - II. Adagio"
PERFORMER " Camesina Quartet"
INDEX 01 00:00:00
FILE "03 String Quartet in E flat major 'Hoffmeister' No.2 - III. Allegro.flac" WAVE
TRACK 03 AUDIO
TITLE "String Quartet in E flat major 'Hoffmeister' No.2 - III. Allegro"
PERFORMER " Camesina Quartet"
INDEX 01 00:00:00
FILE "04 String Quartet in F major Op.33 No.3 - I. Allegro moderato.flac" WAVE
TRACK 04 AUDIO
TITLE "String Quartet in F major Op.33 No.3 - I. Allegro moderato"
PERFORMER " Camesina Quartet"
INDEX 01 00:00:00
FILE "05 String Quartet in F major Op.33 No.3 - II. Arietta I - Arietta II. Tempo moderato.flac" WAVE
TRACK 05 AUDIO
TITLE "String Quartet in F major Op.33 No.3 - II. Arietta I - Arietta II. Tempo mode..."
PERFORMER " Camesina Quartet"
INDEX 01 00:00:00
FILE "06 String Quartet in F major Op.33 No.3 - III. Adagio.flac" WAVE
TRACK 06 AUDIO
TITLE "String Quartet in F major Op.33 No.3 - III. Adagio"
PERFORMER " Camesina Quartet"
INDEX 01 00:00:00
FILE "07 String Quartet in F major Op.33 No.3 - IV. Allegro con fuoco.flac" WAVE
TRACK 07 AUDIO
TITLE "String Quartet in F major Op.33 No.3 - IV. Allegro con fuoco"
PERFORMER " Camesina Quartet"
INDEX 01 00:00:00
FILE "08 String Quartet in A major Op.33 No.2 - I. Allegro moderato.flac" WAVE
TRACK 08 AUDIO
TITLE "String Quartet in A major Op.33 No.2 - I. Allegro moderato"
PERFORMER " Camesina Quartet"
INDEX 01 00:00:00
FILE "09 String Quartet in A major Op.33 No.2 - II. Arietta I- Arietta II.flac" WAVE
TRACK 09 AUDIO
TITLE "String Quartet in A major Op.33 No.2 - II. Arietta I- Arietta II"
PERFORMER " Camesina Quartet"
INDEX 01 00:00:00
FILE "10 String Quartet in A major Op.33 No.2 - III. Adagio sostenuto.flac" WAVE
TRACK 10 AUDIO
TITLE "String Quartet in A major Op.33 No.2 - III. Adagio sostenuto"
PERFORMER " Camesina Quartet"
INDEX 01 00:00:00
FILE "11 String Quartet in A major Op.33 No.2 - IV. Rondo. Allegro molto.flac" WAVE
TRACK 11 AUDIO
TITLE "String Quartet in A major Op.33 No.2 - IV. Rondo. Allegro molto"
PERFORMER " Camesina Quartet"
INDEX 01 00:00:00

EAC

Exact Audio Copy V1.0 beta 3 from 29. August 2011
EAC extraction logfile from 16. April 2014, 15:54
Camesina Quartet / Vanhal - 3 Late String Quartets
Used drive : TSSTcorpCDDVDW SE-208DB Adapter: 1 ID: 0
Read mode : Secure
Utilize accurate stream : Yes
Defeat audio cache : Yes
Make use of C2 pointers : No
Read offset correction : 6
Overread into Lead-In and Lead-Out : No
Fill up missing offset samples with silence : Yes
Delete leading and trailing silent blocks : No
Null samples used in CRC calculations : Yes
Used interface : Native Win32 interface for Win NT & 2000
Gap handling : Appended to previous track
Used output format : User Defined Encoder
Selected bitrate : 768 kBit/s
Quality : High
Add ID3 tag : No
Command line compressor : C:\Program Files (x86)\Exact Audio Copy\FLAC\FLAC.EXE
Additional command line options : -6 -V -T "ARTIST=%artist%" -T "TITLE=%title%" -T "ALBUM=%albumtitle%" -T "DATE=%year%" -T "TRACKNUMBER=%tracknr%" -T "GENRE=%genre%" -T "COMMENT=%comment%" -T "BAND=%albuminterpret%" -T "ALBUMARTIST=%albuminterpret%" -T "COMPOSER=%composer%" %haslyrics%--tag-from-file=LYRICS="%lyricsfile%"%haslyrics% -T "DISCNUMBER=%cdnumber%" -T "TOTALDISCS=%totalcds%" -T "TOTALTRACKS=%numtracks%" %hascover%--picture="%coverfile%"%hascover% %source% -o %dest%
TOC of the extracted CD
Track | Start | Length | Start sector | End sector
---------------------------------------------------------
1 | 0:00.00 | 12:19.54 | 0 | 55478
2 | 12:19.54 | 5:59.14 | 55479 | 82417
3 | 18:18.68 | 5:25.25 | 82418 | 106817
4 | 23:44.18 | 7:39.08 | 106818 | 141250
5 | 31:23.26 | 4:38.36 | 141251 | 162136
6 | 36:01.62 | 4:38.03 | 162137 | 182989
7 | 40:39.65 | 5:00.62 | 182990 | 205551
8 | 45:40.52 | 7:20.40 | 205552 | 238591
9 | 53:01.17 | 5:46.48 | 238592 | 264589
10 | 58:47.65 | 5:28.22 | 264590 | 289211
11 | 64:16.12 | 5:19.04 | 289212 | 313140
Track 1
Filename C:\E\01 String Quartet in E flat major 'Hoffmeister' No.2 - I. Allegro con fuoco.wav
Pre-gap length 0:00:02.00
Peak level 89.9 %
Extraction speed 3.0 X
Track quality 100.0 %
Test CRC 8A7ABE68
Copy CRC 8A7ABE68
Accurately ripped (confidence 3) [1DCA0C1B] (AR v2)
Copy OK
Track 2
Filename C:\E\02 String Quartet in E flat major 'Hoffmeister' No.2 - II. Adagio.wav
Peak level 65.7 %
Extraction speed 3.1 X
Track quality 99.9 %
Test CRC 68776C01
Copy CRC 68776C01
Accurately ripped (confidence 3) [6EE05927] (AR v2)
Copy OK
Track 3
Filename C:\E\03 String Quartet in E flat major 'Hoffmeister' No.2 - III. Allegro.wav
Peak level 63.8 %
Extraction speed 3.0 X
Track quality 99.9 %
Test CRC 63D839D0
Copy CRC 63D839D0
Accurately ripped (confidence 3) [8DA772AB] (AR v2)
Copy OK
Track 4
Filename C:\E\04 String Quartet in F major Op.33 No.3 - I. Allegro moderato.wav
Pre-gap length 0:00:06.00
Peak level 70.1 %
Extraction speed 3.7 X
Track quality 99.9 %
Test CRC 0D3634A3
Copy CRC 0D3634A3
Accurately ripped (confidence 3) [80A47262] (AR v2)
Copy OK
Track 5
Filename C:\E\05 String Quartet in F major Op.33 No.3 - II. Arietta I - Arietta II. Tempo moderato.wav
Peak level 90.4 %
Extraction speed 4.1 X
Track quality 100.0 %
Test CRC 842DA922
Copy CRC 842DA922
Accurately ripped (confidence 3) [102F4837] (AR v2)
Copy OK
Track 6
Filename C:\E\06 String Quartet in F major Op.33 No.3 - III. Adagio.wav
Peak level 48.6 %
Extraction speed 4.4 X
Track quality 100.0 %
Test CRC 4DA54B91
Copy CRC 4DA54B91
Accurately ripped (confidence 3) [A5BDF8CD] (AR v2)
Copy OK
Track 7
Filename C:\E\07 String Quartet in F major Op.33 No.3 - IV. Allegro con fuoco.wav
Peak level 63.6 %
Extraction speed 4.5 X
Track quality 100.0 %
Test CRC 092A0953
Copy CRC 092A0953
Accurately ripped (confidence 3) [ABC6AF4A] (AR v2)
Copy OK
Track 8
Filename C:\E\08 String Quartet in A major Op.33 No.2 - I. Allegro moderato.wav
Pre-gap length 0:00:06.00
Peak level 78.3 %
Extraction speed 4.2 X
Track quality 99.9 %
Test CRC 9206223D
Copy CRC 9206223D
Accurately ripped (confidence 3) [79CB0A78] (AR v2)
Copy OK
Track 9
Filename C:\E\09 String Quartet in A major Op.33 No.2 - II. Arietta I- Arietta II.wav
Peak level 55.6 %
Extraction speed 4.8 X
Track quality 100.0 %
Test CRC E8DE3501
Copy CRC E8DE3501
Accurately ripped (confidence 3) [CE13E8FE] (AR v2)
Copy OK
Track 10
Filename C:\E\10 String Quartet in A major Op.33 No.2 - III. Adagio sostenuto.wav
Peak level 71.7 %
Extraction speed 4.8 X
Track quality 100.0 %
Test CRC 98A4E931
Copy CRC 98A4E931
Accurately ripped (confidence 3) [E86E90B0] (AR v2)
Copy OK
Track 11
Filename C:\E\11 String Quartet in A major Op.33 No.2 - IV. Rondo. Allegro molto.wav
Peak level 79.5 %
Extraction speed 4.2 X
Track quality 99.9 %
Test CRC 1168B8BB
Copy CRC 1168B8BB
Accurately ripped (confidence 3) [3628B7F6] (AR v2)
Copy OK
All tracks accurately ripped
No errors occurred
End of status report
==== Log checksum EA3A83624AE3FB09C9FFE8E4F6729D857AC0A2D3DE97C70DDB70EB8B03207283 ====



Показать сообщения:    

Текущее время: 07-Дек 13:36

Часовой пояс: UTC + 3


Вы не можете начинать темы
Вы не можете отвечать на сообщения
Вы не можете редактировать свои сообщения
Вы не можете удалять свои сообщения
Вы не можете голосовать в опросах
Вы не можете прикреплять файлы к сообщениям
Вы не можете скачивать файлы