(Soundtrack) Оставайтесь с нами / Stay Tuned (Music From And Inspired By The Motion Picture Stay Tuned) (Bruce Broughton,Various) - 1992, FLAC (image+.cue), lossless


Статистика раздачи [Обновить пиров]
Размер:  201 MB   |    Зарегистрирован:  10 месяцев 14 дней   |    Скачан:  0 раз

Полного источника не было: Никогда

Личеров:  6  [  0 KB/s  ]   Подробная статистика пиров
 
   
 
 
 

[Цитировать]

Оставайтесь с нами / Stay Tuned
Название альбома: Music From And Inspired By The Motion Picture Stay Tuned
Жанр: Soundtrack
Композитор: Bruce Broughton,Various
Год выпуска диска: 1992
Год выпуска фильма: 1992
Страна-производитель диска: Germany
Издатель (лейбл): Morgan Creek/Edel
Номер по каталогу: 517 472-2
Аудиокодек: FLAC (*.flac)
Тип рипа: image+.cue
Битрейт аудио: lossless
Продолжительность: 00:35:44
Источник: собственный рип
Наличие сканов в содержимом раздачи: нет
Треклист:
01.Salt 'N' Pepa - Start Me Up
02.Black Sheep - The Choice Is Yours
03.Auto & Cherokee - Taste
04.X-Clan - Xodus
05.Black Sheep - Strobelight Honey
06.Ultramagnetic MC's - Message From The Boss
07.Doctor Ice - The Mic Stalker
08.Kool Moe Dee - Bad, Bad, Bad
09.Bruce Broughton - Darryl's Dad
10.Bruce Broughton - Stay Tuned (Main Theme)

Лог создания рипа

Exact Audio Copy V1.1 from 23. June 2015
EAC extraction logfile from 22. January 2016, 19:16
Various / Stay Tuned
Used drive : TSSTcorpCDDVDW TS-L633C Adapter: 1 ID: 0
Read mode : SecureUtilize accurate stream : YesDefeat audio cache : YesMake use of C2 pointers : No
Read offset correction : 6Overread into Lead-In and Lead-Out : NoFill up missing offset samples with silence : YesDelete leading and trailing silent blocks : NoNull samples used in CRC calculations : YesUsed interface : Native Win32 interface for Win NT & 2000
Used output format : User Defined EncoderSelected bitrate : 768 kBit/sQuality : HighAdd ID3 tag : NoCommand line compressor : C:\Program Files (x86)\Exact Audio Copy\Flac\flac.exeAdditional command line options : -V -8 -T "Date=%year%" -T "Genre=%genre%" %source%
TOC of the extracted CD
Track | Start | Length | Start sector | End sector --------------------------------------------------------- 1 | 0:00.32 | 4:45.03 | 32 | 21409 2 | 4:45.35 | 3:22.00 | 21410 | 36559 3 | 8:07.35 | 4:07.52 | 36560 | 55136 4 | 12:15.12 | 4:22.50 | 55137 | 74836 5 | 16:37.62 | 3:07.55 | 74837 | 88916 6 | 19:45.42 | 4:47.45 | 88917 | 110486 7 | 24:33.12 | 2:57.68 | 110487 | 123829 8 | 27:31.05 | 4:48.70 | 123830 | 145499 9 | 32:20.00 | 1:17.20 | 145500 | 151294 10 | 33:37.20 | 2:07.40 | 151295 | 160859
Range status and errors
Selected range
Filename C:\Users\Music\12.RIPS\Various - Stay Tuned.wav
Peak level 87.6 % Extraction speed 3.8 X Range quality 100.0 % Test CRC 98F5AAB4 Copy CRC 98F5AAB4 Copy OK
No errors occurred
AccurateRip summary
Track 1 cannot be verified as accurate (confidence 1) [C5EB91FE], AccurateRip returned [79DA8564] (AR v2)Track 2 cannot be verified as accurate (confidence 1) [D3C42A97], AccurateRip returned [3E0040BA] (AR v2)Track 3 cannot be verified as accurate (confidence 1) [22D08986], AccurateRip returned [31EF4E76] (AR v2)Track 4 cannot be verified as accurate (confidence 1) [5EBE43F6], AccurateRip returned [029DB75D] (AR v2)Track 5 cannot be verified as accurate (confidence 1) [9A623C12], AccurateRip returned [0F83575F] (AR v2)Track 6 cannot be verified as accurate (confidence 1) [9C11C65D], AccurateRip returned [1D76A61C] (AR v2)Track 7 cannot be verified as accurate (confidence 1) [79AB7845], AccurateRip returned [C503D837] (AR v2)Track 8 cannot be verified as accurate (confidence 1) [64284F3C], AccurateRip returned [E8A03B7D] (AR v2)Track 9 cannot be verified as accurate (confidence 1) [9E8C83CC], AccurateRip returned [4F31C04C] (AR v2)Track 10 cannot be verified as accurate (confidence 1) [B063A86C], AccurateRip returned [E69DC4C5] (AR v2)
No tracks could be verified as accurateYou may have a different pressing from the one(s) in the database
End of status report
---- CUETools DB Plugin V2.1.6
[CTDB TOCID: bjd9CTNhj3DkfSp0kz0eAvuEBgg-] foundSubmit result: bjd9CTNhj3DkfSp0kz0eAvuEBgg- has been confirmedTrack | CTDB Status 1 | (1/1) Accurately ripped 2 | (1/1) Accurately ripped 3 | (1/1) Accurately ripped 4 | (1/1) Accurately ripped 5 | (1/1) Accurately ripped 6 | (1/1) Accurately ripped 7 | (1/1) Accurately ripped 8 | (1/1) Accurately ripped 9 | (1/1) Accurately ripped 10 | (1/1) Accurately ripped
==== Log checksum 8B400DE1B00B6CB69D10CA8DA9A6DA206630C2CA5B15BD5C95D2FBD0B227F1A1 ====
[teatrix.ru].t14436.torrent 
Торрент: Зарегистрирован [ 2016-01-25 02:55 ] · A00B6AFE0E2BB2F615845353D036542199C8C847

Скачать .torrent

Скачать

16 KB

Статус: проверено
Скачан: 0 раз
Размер: 201 MB
terms.php



Быстрый ответ

Имя:

      
Для отправки сообщений необходимо включить JavaScript
Показать сообщения:    

Текущее время: 08-Дек 21:12

Часовой пояс: UTC + 3


Вы можете начинать темы
Вы можете отвечать на сообщения
Вы не можете редактировать свои сообщения
Вы не можете удалять свои сообщения
Вы не можете голосовать в опросах
Вы не можете прикреплять файлы к сообщениям
Вы можете скачивать файлы