(Classical/Orchestral) Ravel: Ma Mère l'Oye; Mussorgsky / Мусоргский / Ravel: Pictures at an Exhibition / Картинки с выставки (Anima Aterna Brugge, Jos van Immerseel) - 2014, FLAC (tracks+.cue) lossless


 

[Цитировать]

Anima Aterna Brugge • Jos van Immerseel — Maurice Ravel: Ma Mère l'Oye; Modest Mussorgsky / Ravel : Pictures at an Exhibition-Classical/Orchestral • Zig-Zag Territoires • ZZT343 • 2013 • lossless • FLAC • tracks+.cue • 00:48:25 • what.cd-01-05. Ravel: Mother Goose Suite
06-20. Mussorgsky / Ravel: Pictures at an Exhibition
-Anima Aterna Brugge || Jos van Immerseel - conductor-

cue

REM GENRE Classical
REM DATE 2014
REM DISCID 200B5914
REM COMMENT "ExactAudioCopy v1.0b3"
CATALOG 3760009293434
PERFORMER "Anima Aterna Brugge"
TITLE "Ravel: Ma Mиre l'Oye"
FILE "01 - Ravel- Ma Mиre l'Oye (Mother Goose Suite)- I. Pavane de la Belle au bois dormant.wav" WAVE
TRACK 01 AUDIO
TITLE "Ravel: Ma Mиre l'Oye (Mother Goose Suite): I. Pavane de la Belle au bois dormant"
PERFORMER "Anima Aterna Brugge"
ISRC FR1P71334301
FLAGS DCP
INDEX 01 00:00:00
FILE "02 - Ravel- Ma Mиre l'Oye (Mother Goose Suite)- II. Petit Poucet.wav" WAVE
TRACK 02 AUDIO
TITLE "Ravel: Ma Mиre l'Oye (Mother Goose Suite): II. Petit Poucet"
PERFORMER "Anima Aterna Brugge"
ISRC FR1P71334302
FLAGS DCP
INDEX 01 00:00:00
FILE "03 - Ravel- Ma Mиre l'Oye (Mother Goose Suite)- III. Laideronnette, Impйratrice des Pagodes.wav" WAVE
TRACK 03 AUDIO
TITLE "Ravel: Ma Mиre l'Oye (Mother Goose Suite): III. Laideronnette, Impйratrice de..."
PERFORMER "Anima Aterna Brugge"
ISRC FR1P71334303
FLAGS DCP
INDEX 01 00:00:00
FILE "04 - Ravel- Ma Mиre l'Oye (Mother Goose Suite)- IV. Les entretiens de la Belle et de la Bкte.wav" WAVE
TRACK 04 AUDIO
TITLE "Ravel: Ma Mиre l'Oye (Mother Goose Suite): IV. Les entretiens de la Belle et ..."
PERFORMER "Anima Aterna Brugge"
ISRC FR1P71334304
FLAGS DCP
INDEX 01 00:00:00
FILE "05 - Ravel- Ma Mиre l'Oye (Mother Goose Suite)- V. Le jardin fйerique.wav" WAVE
TRACK 05 AUDIO
TITLE "Ravel: Ma Mиre l'Oye (Mother Goose Suite): V. Le jardin fйerique"
PERFORMER "Anima Aterna Brugge"
ISRC FR1P71334305
FLAGS DCP
INDEX 01 00:00:00
TRACK 06 AUDIO
TITLE "Mussorgsky/Ravel (Orch.): Pictures at an Exhibition: I. Promenade"
PERFORMER "Anima Aterna Brugge"
ISRC FR1P71334306
FLAGS DCP
INDEX 00 03:14:40
FILE "06 - Mussorgsky,Ravel (Orch.)- Pictures at an Exhibition- I. Promenade.wav" WAVE
INDEX 01 00:00:00
FILE "07 - Mussorgsky,Ravel (Orch.)- Pictures at an Exhibition- II. The Gnome.wav" WAVE
TRACK 07 AUDIO
TITLE "Mussorgsky/Ravel (Orch.): Pictures at an Exhibition: II. The Gnome"
PERFORMER "Anima Aterna Brugge"
ISRC FR1P71334307
FLAGS DCP
INDEX 01 00:00:00
FILE "08 - Mussorgsky,Ravel (Orch.)- Pictures at an Exhibition- III. Promenade.wav" WAVE
TRACK 08 AUDIO
TITLE "Mussorgsky/Ravel (Orch.): Pictures at an Exhibition: III. Promenade"
PERFORMER "Anima Aterna Brugge"
ISRC FR1P71334308
FLAGS DCP
INDEX 01 00:00:00
FILE "09 - Mussorgsky,Ravel (Orch.)- Pictures at an Exhibition- IV. The Old Castle.wav" WAVE
TRACK 09 AUDIO
TITLE "Mussorgsky/Ravel (Orch.): Pictures at an Exhibition: IV. The Old Castle"
PERFORMER "Anima Aterna Brugge"
ISRC FR1P71334309
FLAGS DCP
INDEX 01 00:00:00
FILE "10 - Mussorgsky,Ravel (Orch.)- Pictures at an Exhibition- V. Promenade.wav" WAVE
TRACK 10 AUDIO
TITLE "Mussorgsky/Ravel (Orch.): Pictures at an Exhibition: V. Promenade"
PERFORMER "Anima Aterna Brugge"
ISRC FR1P71334310
FLAGS DCP
INDEX 01 00:00:00
FILE "11 - Mussorgsky,Ravel (Orch.)- Pictures at an Exhibition- VI. The Tuileries.wav" WAVE
TRACK 11 AUDIO
TITLE "Mussorgsky/Ravel (Orch.): Pictures at an Exhibition: VI. The Tuileries"
PERFORMER "Anima Aterna Brugge"
ISRC FR1P71334311
FLAGS DCP
INDEX 01 00:00:00
FILE "12 - Mussorgsky,Ravel (Orch.)- Pictures at an Exhibition- VII. Bydto.wav" WAVE
TRACK 12 AUDIO
TITLE "Mussorgsky/Ravel (Orch.): Pictures at an Exhibition: VII. Bydto"
PERFORMER "Anima Aterna Brugge"
ISRC FR1P71334312
FLAGS DCP
INDEX 01 00:00:00
FILE "13 - Mussorgsky,Ravel (Orch.)- Pictures at an Exhibition- VIII. Promenade.wav" WAVE
TRACK 13 AUDIO
TITLE "Mussorgsky/Ravel (Orch.): Pictures at an Exhibition: VIII. Promenade"
PERFORMER "Anima Aterna Brugge"
ISRC FR1P71334313
FLAGS DCP
INDEX 01 00:00:00
FILE "14 - Mussorgsky,Ravel (Orch.)- Pictures at an Exhibition- IX. Ballet of the Chickens in Their Shells.wav" WAVE
TRACK 14 AUDIO
TITLE "Mussorgsky/Ravel (Orch.): Pictures at an Exhibition: IX. Ballet of the Chicke..."
PERFORMER "Anima Aterna Brugge"
ISRC FR1P71334314
FLAGS DCP
INDEX 01 00:00:00
FILE "15 - Mussorgsky,Ravel (Orch.)- Pictures at an Exhibition- X. Samuel Goldenberg & Schmuяle.wav" WAVE
TRACK 15 AUDIO
TITLE "Mussorgsky/Ravel (Orch.): Pictures at an Exhibition: X. Samuel Goldenberg & S..."
PERFORMER "Anima Aterna Brugge"
ISRC FR1P71334315
FLAGS DCP
INDEX 01 00:00:00
FILE "16 - Mussorgsky,Ravel (Orch.)- Pictures at an Exhibition- XI. The Marketplace in Limoges.wav" WAVE
TRACK 16 AUDIO
TITLE "Mussorgsky/Ravel (Orch.): Pictures at an Exhibition: XI. The Marketplace in L..."
PERFORMER "Anima Aterna Brugge"
ISRC FR1P71334316
FLAGS DCP
INDEX 01 00:00:00
FILE "17 - Mussorgsky,Ravel (Orch.)- Pictures at an Exhibition- XII. The Catacombs.wav" WAVE
TRACK 17 AUDIO
TITLE "Mussorgsky/Ravel (Orch.): Pictures at an Exhibition: XII. The Catacombs"
PERFORMER "Anima Aterna Brugge"
ISRC FR1P71334317
FLAGS DCP
INDEX 01 00:00:00
FILE "18 - Mussorgsky,Ravel (Orch.)- Pictures at an Exhibition- XIII. Cum mortuis in lingua mortua.wav" WAVE
TRACK 18 AUDIO
TITLE "Mussorgsky/Ravel (Orch.): Pictures at an Exhibition: XIII. Cum mortuis in lin..."
PERFORMER "Anima Aterna Brugge"
ISRC FR1P71334318
FLAGS DCP
INDEX 01 00:00:00
FILE "19 - Mussorgsky,Ravel (Orch.)- Pictures at an Exhibition- XIV. The Hut on Fowl's Legs (Baba Yaga).wav" WAVE
TRACK 19 AUDIO
TITLE "Mussorgsky/Ravel (Orch.): Pictures at an Exhibition: XIV. The Hut on Fowl's L..."
PERFORMER "Anima Aterna Brugge"
ISRC FR1P71334319
FLAGS DCP
INDEX 01 00:00:00
FILE "20 - Mussorgsky,Ravel (Orch.)- Pictures at an Exhibition- XV. The Great Gate of Kiev.wav" WAVE
TRACK 20 AUDIO
TITLE "Mussorgsky/Ravel (Orch.): Pictures at an Exhibition: XV. The Great Gate of Kiev"
PERFORMER "Anima Aterna Brugge"
ISRC FR1P71334320
FLAGS DCP
INDEX 01 00:00:00

EAC

Exact Audio Copy V1.0 beta 3 from 29. August 2011
EAC extraction logfile from 20. May 2014, 13:48
Anima Aterna Brugge / Ravel: Ma Mère l'Oye
Used drive : HL-DT-STBD-RE BH10LS30 Adapter: 0 ID: 1
Read mode : Secure
Utilize accurate stream : Yes
Defeat audio cache : Yes
Make use of C2 pointers : No
Read offset correction : 667
Overread into Lead-In and Lead-Out : No
Fill up missing offset samples with silence : Yes
Delete leading and trailing silent blocks : No
Null samples used in CRC calculations : Yes
Used interface : Native Win32 interface for Win NT & 2000
Gap handling : Appended to previous track
Used output format : User Defined Encoder
Selected bitrate : 1024 kBit/s
Quality : High
Add ID3 tag : No
Command line compressor : C:\Program Files (x86)\Exact Audio Copy\FLAC\FLAC.EXE
Additional command line options : -8 -V -T "ARTIST=%artist%" -T "TITLE=%title%" -T "ALBUM=%albumtitle%" -T "DATE=%year%" -T "TRACKNUMBER=%tracknr%" -T "GENRE=%genre%" -T "PERFORMER=%albuminterpret%" -T "COMPOSER=%composer%" %haslyrics%--tag-from-file=LYRICS="%lyricsfile%"%haslyrics% -T "ALBUMARTIST=%albumartist%" -T "DISCNUMBER=%cdnumber%" -T "TOTALDISCS=%totalcds%" -T "TOTALTRACKS=%numtracks%" -T "COMMENT=%comment%" %source% -o %dest%
TOC of the extracted CD
Track | Start | Length | Start sector | End sector
---------------------------------------------------------
1 | 0:00.00 | 1:39.39 | 0 | 7463
2 | 1:39.39 | 2:55.41 | 7464 | 20629
3 | 4:35.05 | 3:53.61 | 20630 | 38165
4 | 8:28.66 | 4:23.07 | 38166 | 57897
5 | 12:51.73 | 3:19.02 | 57898 | 72824
6 | 16:11.00 | 1:36.04 | 72825 | 80028
7 | 17:47.04 | 2:36.16 | 80029 | 91744
8 | 20:23.20 | 0:52.59 | 91745 | 95703
9 | 21:16.04 | 4:51.51 | 95704 | 117579
10 | 26:07.55 | 0:32.43 | 117580 | 120022
11 | 26:40.23 | 0:58.31 | 120023 | 124403
12 | 27:38.54 | 2:40.60 | 124404 | 136463
13 | 30:19.39 | 0:44.24 | 136464 | 139787
14 | 31:03.63 | 1:20.41 | 139788 | 145828
15 | 32:24.29 | 2:10.55 | 145829 | 155633
16 | 34:35.09 | 1:32.04 | 155634 | 162537
17 | 36:07.13 | 1:46.36 | 162538 | 170523
18 | 37:53.49 | 2:02.07 | 170524 | 179680
19 | 39:55.56 | 3:39.18 | 179681 | 196123
20 | 43:34.74 | 4:50.40 | 196124 | 217913
Track 1
Filename M:\Classical\Ravel - Ma Mère l'Oye\01 - Ravel- Ma Mère l'Oye (Mother Goose Suite)- I. Pavane de la Belle au bois dormant.wav
Pre-gap length 0:00:02.00
Peak level 9.2 %
Extraction speed 0.9 X
Track quality 100.0 %
Test CRC 881C1148
Copy CRC 881C1148
Accurately ripped (confidence 2) [476AA772] (AR v2)
Copy OK
Track 2
Filename M:\Classical\Ravel - Ma Mère l'Oye\02 - Ravel- Ma Mère l'Oye (Mother Goose Suite)- II. Petit Poucet.wav
Peak level 34.3 %
Extraction speed 1.0 X
Track quality 100.0 %
Test CRC D03A74EE
Copy CRC D03A74EE
Accurately ripped (confidence 2) [87953D49] (AR v2)
Copy OK
Track 3
Filename M:\Classical\Ravel - Ma Mère l'Oye\03 - Ravel- Ma Mère l'Oye (Mother Goose Suite)- III. Laideronnette, Impératrice des Pagodes.wav
Peak level 78.3 %
Extraction speed 1.2 X
Track quality 100.0 %
Test CRC A7CE4C2F
Copy CRC A7CE4C2F
Accurately ripped (confidence 2) [76DE3624] (AR v2)
Copy OK
Track 4
Filename M:\Classical\Ravel - Ma Mère l'Oye\04 - Ravel- Ma Mère l'Oye (Mother Goose Suite)- IV. Les entretiens de la Belle et de la Bête.wav
Peak level 67.1 %
Extraction speed 1.3 X
Track quality 100.0 %
Test CRC 549988ED
Copy CRC 549988ED
Accurately ripped (confidence 2) [4C978F18] (AR v2)
Copy OK
Track 5
Filename M:\Classical\Ravel - Ma Mère l'Oye\05 - Ravel- Ma Mère l'Oye (Mother Goose Suite)- V. Le jardin féerique.wav
Peak level 79.6 %
Extraction speed 1.4 X
Track quality 100.0 %
Test CRC 9E8F6B5E
Copy CRC 9E8F6B5E
Accurately ripped (confidence 2) [55C90375] (AR v2)
Copy OK
Track 6
Filename M:\Classical\Ravel - Ma Mère l'Oye\06 - Mussorgsky,Ravel (Orch.)- Pictures at an Exhibition- I. Promenade.wav
Pre-gap length 0:00:04.37
Peak level 59.9 %
Extraction speed 1.2 X
Track quality 100.0 %
Test CRC 4A2CCF07
Copy CRC 4A2CCF07
Accurately ripped (confidence 2) [7D817718] (AR v2)
Copy OK
Track 7
Filename M:\Classical\Ravel - Ma Mère l'Oye\07 - Mussorgsky,Ravel (Orch.)- Pictures at an Exhibition- II. The Gnome.wav
Peak level 99.5 %
Extraction speed 1.4 X
Track quality 100.0 %
Test CRC 90C940AF
Copy CRC 90C940AF
Accurately ripped (confidence 2) [454EB2DB] (AR v2)
Copy OK
Track 8
Filename M:\Classical\Ravel - Ma Mère l'Oye\08 - Mussorgsky,Ravel (Orch.)- Pictures at an Exhibition- III. Promenade.wav
Peak level 11.4 %
Extraction speed 0.7 X
Track quality 99.7 %
Test CRC 67A2EABA
Copy CRC 67A2EABA
Accurately ripped (confidence 2) [DF4DADEB] (AR v2)
Copy OK
Track 9
Filename M:\Classical\Ravel - Ma Mère l'Oye\09 - Mussorgsky,Ravel (Orch.)- Pictures at an Exhibition- IV. The Old Castle.wav
Peak level 21.0 %
Extraction speed 1.7 X
Track quality 100.0 %
Test CRC F43B0A7C
Copy CRC F43B0A7C
Accurately ripped (confidence 2) [380791C0] (AR v2)
Copy OK
Track 10
Filename M:\Classical\Ravel - Ma Mère l'Oye\10 - Mussorgsky,Ravel (Orch.)- Pictures at an Exhibition- V. Promenade.wav
Peak level 32.4 %
Extraction speed 0.9 X
Track quality 100.0 %
Test CRC E921D744
Copy CRC E921D744
Accurately ripped (confidence 2) [D15F7ECC] (AR v2)
Copy OK
Track 11
Filename M:\Classical\Ravel - Ma Mère l'Oye\11 - Mussorgsky,Ravel (Orch.)- Pictures at an Exhibition- VI. The Tuileries.wav
Peak level 38.7 %
Extraction speed 0.8 X
Track quality 99.8 %
Test CRC DB833FE7
Copy CRC DB833FE7
Accurately ripped (confidence 2) [BC4A41CF] (AR v2)
Copy OK
Track 12
Filename M:\Classical\Ravel - Ma Mère l'Oye\12 - Mussorgsky,Ravel (Orch.)- Pictures at an Exhibition- VII. Bydto.wav
Peak level 68.1 %
Extraction speed 1.6 X
Track quality 100.0 %
Test CRC DA532330
Copy CRC DA532330
Accurately ripped (confidence 2) [D7765713] (AR v2)
Copy OK
Track 13
Filename M:\Classical\Ravel - Ma Mère l'Oye\13 - Mussorgsky,Ravel (Orch.)- Pictures at an Exhibition- VIII. Promenade.wav
Peak level 29.0 %
Extraction speed 1.1 X
Track quality 100.0 %
Test CRC C19C348C
Copy CRC C19C348C
Accurately ripped (confidence 2) [89995CA3] (AR v2)
Copy OK
Track 14
Filename M:\Classical\Ravel - Ma Mère l'Oye\14 - Mussorgsky,Ravel (Orch.)- Pictures at an Exhibition- IX. Ballet of the Chickens in Their Shells.wav
Peak level 28.2 %
Extraction speed 1.4 X
Track quality 100.0 %
Test CRC 756DC197
Copy CRC 756DC197
Accurately ripped (confidence 2) [60C9A7F1] (AR v2)
Copy OK
Track 15
Filename M:\Classical\Ravel - Ma Mère l'Oye\15 - Mussorgsky,Ravel (Orch.)- Pictures at an Exhibition- X. Samuel Goldenberg & Schmuÿle.wav
Peak level 38.5 %
Extraction speed 1.6 X
Track quality 100.0 %
Test CRC 97A592CF
Copy CRC 97A592CF
Accurately ripped (confidence 2) [91FC5EE8] (AR v2)
Copy OK
Track 16
Filename M:\Classical\Ravel - Ma Mère l'Oye\16 - Mussorgsky,Ravel (Orch.)- Pictures at an Exhibition- XI. The Marketplace in Limoges.wav
Peak level 58.1 %
Extraction speed 1.5 X
Track quality 100.0 %
Test CRC 0F3FE3EB
Copy CRC 0F3FE3EB
Accurately ripped (confidence 2) [F9C34064] (AR v2)
Copy OK
Track 17
Filename M:\Classical\Ravel - Ma Mère l'Oye\17 - Mussorgsky,Ravel (Orch.)- Pictures at an Exhibition- XII. The Catacombs.wav
Peak level 92.9 %
Extraction speed 1.6 X
Track quality 100.0 %
Test CRC 945B9DEB
Copy CRC 945B9DEB
Accurately ripped (confidence 2) [FA5F3E94] (AR v2)
Copy OK
Track 18
Filename M:\Classical\Ravel - Ma Mère l'Oye\18 - Mussorgsky,Ravel (Orch.)- Pictures at an Exhibition- XIII. Cum mortuis in lingua mortua.wav
Peak level 11.1 %
Extraction speed 1.7 X
Track quality 100.0 %
Test CRC 9A33F196
Copy CRC 9A33F196
Accurately ripped (confidence 2) [07B6F1D4] (AR v2)
Copy OK
Track 19
Filename M:\Classical\Ravel - Ma Mère l'Oye\19 - Mussorgsky,Ravel (Orch.)- Pictures at an Exhibition- XIV. The Hut on Fowl's Legs (Baba Yaga).wav
Peak level 96.9 %
Extraction speed 2.0 X
Track quality 100.0 %
Test CRC A0A71DCE
Copy CRC A0A71DCE
Accurately ripped (confidence 2) [EECD101D] (AR v2)
Copy OK
Track 20
Filename M:\Classical\Ravel - Ma Mère l'Oye\20 - Mussorgsky,Ravel (Orch.)- Pictures at an Exhibition- XV. The Great Gate of Kiev.wav
Peak level 97.6 %
Extraction speed 1.9 X
Track quality 99.9 %
Test CRC 72B92247
Copy CRC 72B92247
Accurately ripped (confidence 2) [32064C81] (AR v2)
Copy OK
All tracks accurately ripped
No errors occurred
End of status report
==== Log checksum 9BD5A7F648F74DA538662FF52613120FD15405CF674C45332384526C2A84F345 ====



Показать сообщения:    

Текущее время: 11-Дек 12:58

Часовой пояс: UTC + 3


Вы не можете начинать темы
Вы не можете отвечать на сообщения
Вы не можете редактировать свои сообщения
Вы не можете удалять свои сообщения
Вы не можете голосовать в опросах
Вы не можете прикреплять файлы к сообщениям
Вы не можете скачивать файлы