(Opera) Giuseppe Verdi-Don Carlos / Джузеппе Верди-Дон Карлос [in French] (Antonio Pappano; Roberto Alagna, Karita Mattila, Jose van Dam, Waltraud Meier, Thomas Hampson, Eric Halfvarson), 1996 - live from Théâtre du Châtelet / FLAC (tr


 

[Цитировать]

Giuseppe Verdi - Don Carlos / Джузеппе Верди - Дон Карлос (Antonio Pappano; Roberto Alagna, Karita Mattila, José van Dam, Waltraud Meier, Thomas Hampson, Eric Halfvarson)
Жанр: Opera
Страна-производитель диска: Франция
Год издания диска: 1996
Издатель (лейбл): EMI Classics
Дата записи: 1996
Аудиокодек: FLAC
Тип рипа: tracks
Битрейт аудио: lossless
Продолжительность: 204:16
Источник: релизер (Davide)
Исполнители:
Don Carlos - Roberto Alagna,
Elizabeth de Valois - Karita Mattila,
Philippe II - José van Dam,
La Princesse Eboli - Waltraud Meier,
Rodrigue - Thomas Hampson,
Le Grand Inquisiteur - Eric Halfvarson,
Un Moine - Csaba Airizer,
Thibault - Anat Efraty,
Le Compte de Lerme - Scot Weir,
Un Hérault Royal - Scot Weir,
Un Voix D'En Haut - Donna Brown.
Conductor - Antonio Pappano,
Orchestre de Paris,
Chorus of Théâtre du Châtelet.
Recorded live at Théâtre du Châtelet, March 10, 13, 16, 1996.

Лог создания рипаЛог создания рипа CD 1

Exact Audio Copy V1.0 beta 3 from 29. August 2011
EAC extraction logfile from 29. December 2015, 0:31
Antonio Pappano, Orchestre de Paris / Don Carlos - CD1
Used drive : hp DVDRW DU8A5SHL Adapter: 0 ID: 0
Read mode : SecureUtilize accurate stream : YesDefeat audio cache : YesMake use of C2 pointers : No
Read offset correction : 6Overread into Lead-In and Lead-Out : NoFill up missing offset samples with silence : YesDelete leading and trailing silent blocks : NoNull samples used in CRC calculations : YesUsed interface : Native Win32 interface for Win NT & 2000Gap handling : Appended to previous track
Used output format : User Defined EncoderSelected bitrate : 768 kBit/sQuality : HighAdd ID3 tag : NoCommand line compressor : C:\Program Files (x86)\Exact Audio Copy\FLAC\FLAC.EXEAdditional command line options : -6 -V -T "ARTIST=%artist%" -T "TITLE=%title%" -T "ALBUM=%albumtitle%" -T "DATE=%year%" -T "TRACKNUMBER=%tracknr%" -T "GENRE=%genre%" -T "COMMENT=%comment%" -T "BAND=%albuminterpret%" -T "ALBUMARTIST=%albuminterpret%" -T "COMPOSER=%composer%" %haslyrics%--tag-from-file=LYRICS="%lyricsfile%"%haslyrics% -T "DISCNUMBER=%cdnumber%" -T "TOTALDISCS=%totalcds%" -T "TOTALTRACKS=%numtracks%" %hascover%--picture="%coverfile%"%hascover% %source% -o %dest%
TOC of the extracted CD
Track | Start | Length | Start sector | End sector --------------------------------------------------------- 1 | 0:00.32 | 1:16.43 | 32 | 5774 2 | 1:17.00 | 1:53.57 | 5775 | 14306 3 | 3:10.57 | 2:09.60 | 14307 | 24041 4 | 5:20.42 | 2:29.13 | 24042 | 35229 5 | 7:49.55 | 3:53.20 | 35230 | 52724 6 | 11:43.00 | 4:33.02 | 52725 | 73201 7 | 16:16.02 | 2:08.40 | 73202 | 82841 8 | 18:24.42 | 6:32.30 | 82842 | 112271 9 | 24:56.72 | 6:29.65 | 112272 | 141511 10 | 31:26.62 | 1:55.20 | 141512 | 150156 11 | 33:22.07 | 5:24.03 | 150157 | 174459 12 | 38:46.10 | 4:35.35 | 174460 | 195119 13 | 43:21.45 | 3:21.65 | 195120 | 210259 14 | 46:43.35 | 4:25.47 | 210260 | 230181 15 | 51:09.07 | 3:51.28 | 230182 | 247534 16 | 55:00.35 | 4:25.10 | 247535 | 267419 17 | 59:25.45 | 3:45.30 | 267420 | 284324 18 | 63:11.00 | 6:28.37 | 284325 | 313461
Track 1
Filename H:\BLOGGER\AA CD RIPPATI\Verdi Don Carlos Pappano 1996\CD1\01 Don Carlo- Act 1. Prélude & Introduction. Le cerf s'enfuit sous la ramure.wav
Peak level 40.5 % Extraction speed 0.9 X Track quality 100.0 % Copy CRC 435E7581 Accurately ripped (confidence 12) [7BC97FCE] (AR v2) Copy OK
Track 2
Filename H:\BLOGGER\AA CD RIPPATI\Verdi Don Carlos Pappano 1996\CD1\02 Don Carlo- Act 1. Récit & romance. Fountainebleau! Forêt immense et solitaire!.wav
Peak level 21.4 % Extraction speed 1.0 X Track quality 100.0 % Copy CRC 6CD31548 Accurately ripped (confidence 11) [74095E81] (AR v2) Copy OK
Track 3
Filename H:\BLOGGER\AA CD RIPPATI\Verdi Don Carlos Pappano 1996\CD1\03 Don Carlo- Act 1. Je l'ai vue, et dans son sourire.wav
Peak level 22.3 % Extraction speed 0.9 X Track quality 99.9 % Copy CRC 86D014EF Accurately ripped (confidence 11) [19D9AF46] (AR v2) Copy OK
Track 4
Filename H:\BLOGGER\AA CD RIPPATI\Verdi Don Carlos Pappano 1996\CD1\04 Don Carlo- Act 1. Scène & Duo. Le bruit du cor s'éteint sous l'ombre épaisse.wav
Peak level 29.2 % Extraction speed 1.2 X Track quality 100.0 % Copy CRC A1F33706 Accurately ripped (confidence 11) [22CBB5DB] (AR v2) Copy OK
Track 5
Filename H:\BLOGGER\AA CD RIPPATI\Verdi Don Carlos Pappano 1996\CD1\05 Don Carlo- Act 1. Que faites-vous donc.wav
Peak level 66.6 % Extraction speed 1.4 X Track quality 100.0 % Copy CRC 159A23A3 Accurately ripped (confidence 11) [7B76F93D] (AR v2) Copy OK
Track 6
Filename H:\BLOGGER\AA CD RIPPATI\Verdi Don Carlos Pappano 1996\CD1\06 Don Carlo- Act 1. De quels transports poignants.wav
Peak level 61.7 % Extraction speed 1.6 X Track quality 100.0 % Copy CRC 32BFA722 Accurately ripped (confidence 11) [DC7F7FC1] (AR v2) Copy OK
Track 7
Filename H:\BLOGGER\AA CD RIPPATI\Verdi Don Carlos Pappano 1996\CD1\07 Don Carlo- Act 1. Scène & finale. A celui qui nous vient, Madame.wav
Peak level 58.1 % Extraction speed 1.4 X Track quality 100.0 % Copy CRC 8D378FEB Accurately ripped (confidence 11) [1F9E0C08] (AR v2) Copy OK
Track 8
Filename H:\BLOGGER\AA CD RIPPATI\Verdi Don Carlos Pappano 1996\CD1\08 Don Carlo- Act 1. O chants de fête et d'allégresse.wav
Peak level 77.5 % Extraction speed 1.7 X Track quality 99.9 % Copy CRC A4933A79 Accurately ripped (confidence 10) [D2BF196E] (AR v2) Copy OK
Track 9
Filename H:\BLOGGER\AA CD RIPPATI\Verdi Don Carlos Pappano 1996\CD1\09 Don Carlo- Act 2. Scene 1. Scène & prière. Charles Quint, l'auguste empereur.wav
Peak level 34.8 % Extraction speed 1.8 X Track quality 99.9 % Copy CRC 936E4069 Accurately ripped (confidence 11) [D0D3239A] (AR v2) Copy OK
Track 10
Filename H:\BLOGGER\AA CD RIPPATI\Verdi Don Carlos Pappano 1996\CD1\10 Don Carlo- Act 2. Scene 1. Au couvent de Saint-Just.wav
Peak level 27.1 % Extraction speed 1.7 X Track quality 100.0 % Copy CRC 0288E151 Accurately ripped (confidence 11) [FF102B67] (AR v2) Copy OK
Track 11
Filename H:\BLOGGER\AA CD RIPPATI\Verdi Don Carlos Pappano 1996\CD1\11 Don Carlo- Act 2. Scene 1. Scène & duo. Le voilà! C'est l'infant!.wav
Peak level 63.3 % Extraction speed 1.9 X Track quality 99.9 % Copy CRC 16485CAD Accurately ripped (confidence 11) [8319ABD7] (AR v2) Copy OK
Track 12
Filename H:\BLOGGER\AA CD RIPPATI\Verdi Don Carlos Pappano 1996\CD1\12 Don Carlo- Act 2. Scene 1. Dieu, tu semas dans nos âmes.wav
Peak level 37.8 % Extraction speed 2.1 X Track quality 100.0 % Copy CRC 7077C1B4 Accurately ripped (confidence 11) [C3782CF9] (AR v2) Copy OK
Track 13
Filename H:\BLOGGER\AA CD RIPPATI\Verdi Don Carlos Pappano 1996\CD1\13 Don Carlo- Act 2. Scene 2. Chœur & scène. Sous ces bois au feuillage immense.wav
Peak level 39.7 % Extraction speed 1.8 X Track quality 99.9 % Copy CRC 1B66E287 Accurately ripped (confidence 10) [C46F6EB5] (AR v2) Copy OK
Track 14
Filename H:\BLOGGER\AA CD RIPPATI\Verdi Don Carlos Pappano 1996\CD1\14 Don Carlo- Act 2. Scene 2. Chanson du voile. Au palais des fées.wav
Peak level 30.4 % Extraction speed 2.3 X Track quality 100.0 % Copy CRC 91A8C208 Accurately ripped (confidence 10) [1740C210] (AR v2) Copy OK
Track 15
Filename H:\BLOGGER\AA CD RIPPATI\Verdi Don Carlos Pappano 1996\CD1\15 Don Carlo- Act 2. Scene 2. Scène, terzetto dialogué & romance. La Reine!.wav
Peak level 21.4 % Extraction speed 2.0 X Track quality 99.9 % Copy CRC 222CABB0 Accurately ripped (confidence 10) [C71E8316] (AR v2) Copy OK
Track 16
Filename H:\BLOGGER\AA CD RIPPATI\Verdi Don Carlos Pappano 1996\CD1\16 Don Carlo- Act 2. Scene 2. L'infant Carlos, notre espérance.wav
Peak level 22.2 % Extraction speed 2.4 X Track quality 100.0 % Copy CRC 036F8DDB Accurately ripped (confidence 10) [D2E8ECBB] (AR v2) Copy OK
Track 17
Filename H:\BLOGGER\AA CD RIPPATI\Verdi Don Carlos Pappano 1996\CD1\17 Don Carlo- Act 2. Scene 2. Grande scène & duo. Je viens solliciter de la Reine.wav
Peak level 56.9 % Extraction speed 2.1 X Track quality 99.9 % Copy CRC 90719DDC Accurately ripped (confidence 11) [2A0EBB7E] (AR v2) Copy OK
Track 18
Filename H:\BLOGGER\AA CD RIPPATI\Verdi Don Carlos Pappano 1996\CD1\18 Don Carlo- Act 2. Scene 2. O bien perdu....wav
Peak level 77.0 % Extraction speed 2.7 X Track quality 100.0 % Copy CRC EBAF9219 Accurately ripped (confidence 11) [586A603F] (AR v2) Copy OK
All tracks accurately ripped
No errors occurred
End of status report

Лог создания рипа CD 2

Exact Audio Copy V1.0 beta 3 from 29. August 2011
EAC extraction logfile from 29. December 2015, 1:17
Antonio Pappano, Orchestre de Paris / Don Carlos - CD2
Used drive : hp DVDRW DU8A5SHL Adapter: 0 ID: 0
Read mode : SecureUtilize accurate stream : YesDefeat audio cache : YesMake use of C2 pointers : No
Read offset correction : 6Overread into Lead-In and Lead-Out : NoFill up missing offset samples with silence : YesDelete leading and trailing silent blocks : NoNull samples used in CRC calculations : YesUsed interface : Native Win32 interface for Win NT & 2000Gap handling : Appended to previous track
Used output format : User Defined EncoderSelected bitrate : 768 kBit/sQuality : HighAdd ID3 tag : NoCommand line compressor : C:\Program Files (x86)\Exact Audio Copy\FLAC\FLAC.EXEAdditional command line options : -6 -V -T "ARTIST=%artist%" -T "TITLE=%title%" -T "ALBUM=%albumtitle%" -T "DATE=%year%" -T "TRACKNUMBER=%tracknr%" -T "GENRE=%genre%" -T "COMMENT=%comment%" -T "BAND=%albuminterpret%" -T "ALBUMARTIST=%albuminterpret%" -T "COMPOSER=%composer%" %haslyrics%--tag-from-file=LYRICS="%lyricsfile%"%haslyrics% -T "DISCNUMBER=%cdnumber%" -T "TOTALDISCS=%totalcds%" -T "TOTALTRACKS=%numtracks%" %hascover%--picture="%coverfile%"%hascover% %source% -o %dest%
TOC of the extracted CD
Track | Start | Length | Start sector | End sector --------------------------------------------------------- 1 | 0:00.32 | 1:15.18 | 32 | 5674 2 | 1:15.50 | 4:21.65 | 5675 | 25314 3 | 5:37.40 | 2:23.10 | 25315 | 36049 4 | 8:00.50 | 4:45.65 | 36050 | 57489 5 | 12:46.40 | 3:43.02 | 57490 | 74216 6 | 16:29.42 | 4:01.63 | 74217 | 92354 7 | 20:31.30 | 4:37.52 | 92355 | 113181 8 | 25:09.07 | 3:06.65 | 113182 | 127196 9 | 28:15.72 | 4:26.65 | 127197 | 147211 10 | 32:42.62 | 9:17.40 | 147212 | 189026 11 | 42:00.27 | 6:02.00 | 189027 | 216176 12 | 48:02.27 | 5:10.63 | 216177 | 239489 13 | 53:13.15 | 9:52.70 | 239490 | 283959 14 | 63:06.10 | 3:49.67 | 283960 | 301201 15 | 66:56.02 | 5:42.43 | 301202 | 326894
Track 1
Filename H:\BLOGGER\AA CD RIPPATI\Verdi Don Carlos Pappano 1996\CD2\01 Don Carlo- Act 2. Scene 2. Scène & romance. Le Roi!.wav
Peak level 30.1 % Extraction speed 0.9 X Track quality 100.0 % Copy CRC 20701F6E Accurately ripped (confidence 11) [4F1AB911] (AR v2) Copy OK
Track 2
Filename H:\BLOGGER\AA CD RIPPATI\Verdi Don Carlos Pappano 1996\CD2\02 Don Carlo- Act 2. Scene 2. O ma chère compagne.wav
Peak level 45.9 % Extraction speed 1.3 X Track quality 100.0 % Copy CRC 7DE4A3E6 Accurately ripped (confidence 11) [A49DF4AF] (AR v2) Copy OK
Track 3
Filename H:\BLOGGER\AA CD RIPPATI\Verdi Don Carlos Pappano 1996\CD2\03 Don Carlo- Act 2. Scene 2. Scène & duo. Restez!.wav
Peak level 25.9 % Extraction speed 1.3 X Track quality 100.0 % Copy CRC B8021DCC Accurately ripped (confidence 11) [63432748] (AR v2) Copy OK
Track 4
Filename H:\BLOGGER\AA CD RIPPATI\Verdi Don Carlos Pappano 1996\CD2\04 Don Carlo- Act 2. Scene 2. O Roi! J'arrive de Flandres.wav
Peak level 42.4 % Extraction speed 1.4 X Track quality 99.9 % Copy CRC A5DB24BD Accurately ripped (confidence 11) [338564A9] (AR v2) Copy OK
Track 5
Filename H:\BLOGGER\AA CD RIPPATI\Verdi Don Carlos Pappano 1996\CD2\05 Don Carlo- Act 2. Scene 2. Votre regard hardi s'est levé sur mon trône.wav
Peak level 70.1 % Extraction speed 1.6 X Track quality 100.0 % Copy CRC EFB8CECA Accurately ripped (confidence 11) [740C3587] (AR v2) Copy OK
Track 6
Filename H:\BLOGGER\AA CD RIPPATI\Verdi Don Carlos Pappano 1996\CD2\06 Don Carlo- Act 3. Scene 1. Introduction & chœur. Que de fleurs et que d'étoiles.wav
Peak level 44.8 % Extraction speed 1.7 X Track quality 100.0 % Copy CRC 8BD880F9 Accurately ripped (confidence 11) [ABC2D8CE] (AR v2) Copy OK
Track 7
Filename H:\BLOGGER\AA CD RIPPATI\Verdi Don Carlos Pappano 1996\CD2\07 Don Carlo- Act 3. Scene 1. Scène, duo & trio. A minuit, aux jardins de la Reine.wav
Peak level 93.6 % Extraction speed 1.8 X Track quality 100.0 % Copy CRC B23CBBCD Accurately ripped (confidence 11) [51C2843A] (AR v2) Copy OK
Track 8
Filename H:\BLOGGER\AA CD RIPPATI\Verdi Don Carlos Pappano 1996\CD2\08 Don Carlo- Act 3. Scene 1. Que dit-il Il est en délire....wav
Peak level 61.5 % Extraction speed 1.5 X Track quality 99.9 % Copy CRC 5AD5AF4D Accurately ripped (confidence 11) [BB4E2B1C] (AR v2) Copy OK
Track 9
Filename H:\BLOGGER\AA CD RIPPATI\Verdi Don Carlos Pappano 1996\CD2\09 Don Carlo- Act 3. Scene 1. Et moi qui tremblais devant elle!.wav
Peak level 81.6 % Extraction speed 2.0 X Track quality 100.0 % Copy CRC 7D9E8B8F Accurately ripped (confidence 11) [113ED7EB] (AR v2) Copy OK
Track 10
Filename H:\BLOGGER\AA CD RIPPATI\Verdi Don Carlos Pappano 1996\CD2\10 Don Carlo- Act 3. Scene 2. Grand finale. Ce jour heureux est plein d'allégresse.wav
Peak level 79.0 % Extraction speed 2.2 X Track quality 100.0 % Copy CRC A6C78634 Accurately ripped (confidence 10) [E3AD442D] (AR v2) Copy OK
Track 11
Filename H:\BLOGGER\AA CD RIPPATI\Verdi Don Carlos Pappano 1996\CD2\11 Don Carlo- Act 3. Scene 2. En plaçant sur mon front, peuple, cette couronne.wav
Peak level 57.1 % Extraction speed 2.3 X Track quality 100.0 % Copy CRC 5BF03580 Accurately ripped (confidence 10) [C1EA9411] (AR v2) Copy OK
Track 12
Filename H:\BLOGGER\AA CD RIPPATI\Verdi Don Carlos Pappano 1996\CD2\12 Don Carlo- Act 3. Scene 2. Sire, il est temps!.wav
Peak level 72.4 % Extraction speed 2.4 X Track quality 100.0 % Copy CRC B98B18E7 Accurately ripped (confidence 10) [4D88AE8B] (AR v2) Copy OK
Track 13
Filename H:\BLOGGER\AA CD RIPPATI\Verdi Don Carlos Pappano 1996\CD2\13 Don Carlo- Act 4. Scene 1. Scène & cantabile. Elle ne m'aime pas.wav
Peak level 35.7 % Extraction speed 2.5 X Track quality 99.9 % Copy CRC AEA59AB6 Accurately ripped (confidence 11) [8F97F698] (AR v2) Copy OK
Track 14
Filename H:\BLOGGER\AA CD RIPPATI\Verdi Don Carlos Pappano 1996\CD2\14 Don Carlo- Act 4. Scene 1. Scène. Le Grand Inquisiteur!.wav
Peak level 30.7 % Extraction speed 2.5 X Track quality 100.0 % Copy CRC F6B4FE39 Accurately ripped (confidence 11) [3B1D2BF7] (AR v2) Copy OK
Track 15
Filename H:\BLOGGER\AA CD RIPPATI\Verdi Don Carlos Pappano 1996\CD2\15 Don Carlo- Act 4. Scene 1. Dans ce beau pays.wav
Peak level 56.8 % Extraction speed 2.7 X Track quality 100.0 % Copy CRC 41F4CF73 Accurately ripped (confidence 11) [CF788CD4] (AR v2) Copy OK
All tracks accurately ripped
No errors occurred
End of status report

Лог создания рипа CD 3

Exact Audio Copy V1.0 beta 3 from 29. August 2011
EAC extraction logfile from 29. December 2015, 2:12
Antonio Pappano, Orchestre de Paris / Don Carlos - CD3
Used drive : hp DVDRW DU8A5SHL Adapter: 0 ID: 0
Read mode : SecureUtilize accurate stream : YesDefeat audio cache : YesMake use of C2 pointers : No
Read offset correction : 6Overread into Lead-In and Lead-Out : NoFill up missing offset samples with silence : YesDelete leading and trailing silent blocks : NoNull samples used in CRC calculations : YesUsed interface : Native Win32 interface for Win NT & 2000Gap handling : Appended to previous track
Used output format : User Defined EncoderSelected bitrate : 768 kBit/sQuality : HighAdd ID3 tag : NoCommand line compressor : C:\Program Files (x86)\Exact Audio Copy\FLAC\FLAC.EXEAdditional command line options : -6 -V -T "ARTIST=%artist%" -T "TITLE=%title%" -T "ALBUM=%albumtitle%" -T "DATE=%year%" -T "TRACKNUMBER=%tracknr%" -T "GENRE=%genre%" -T "COMMENT=%comment%" -T "BAND=%albuminterpret%" -T "ALBUMARTIST=%albuminterpret%" -T "COMPOSER=%composer%" %haslyrics%--tag-from-file=LYRICS="%lyricsfile%"%haslyrics% -T "DISCNUMBER=%cdnumber%" -T "TOTALDISCS=%totalcds%" -T "TOTALTRACKS=%numtracks%" %hascover%--picture="%coverfile%"%hascover% %source% -o %dest%
TOC of the extracted CD
Track | Start | Length | Start sector | End sector --------------------------------------------------------- 1 | 0:00.32 | 5:02.40 | 32 | 22721 2 | 5:02.72 | 5:13.28 | 22722 | 46224 3 | 10:16.25 | 4:12.40 | 46225 | 65164 4 | 14:28.65 | 4:51.60 | 65165 | 87049 5 | 19:20.50 | 3:20.52 | 87050 | 102101 6 | 22:41.27 | 4:22.03 | 102102 | 121754 7 | 27:03.30 | 4:00.07 | 121755 | 139761 8 | 31:03.37 | 6:49.63 | 139762 | 170499 9 | 37:53.25 | 3:52.00 | 170500 | 187899 10 | 41:45.25 | 11:25.12 | 187900 | 239286 11 | 53:10.37 | 3:36.50 | 239287 | 255536 12 | 56:47.12 | 6:43.33 | 255537 | 285794
Track 1
Filename H:\BLOGGER\AA CD RIPPATI\Verdi Don Carlos Pappano 1996\CD3\01 Don Carlos- Act 4. Scene 1. Scène & quatuor. Justice, Sire!.wav
Peak level 99.7 % Extraction speed 1.2 X Track quality 100.0 % Copy CRC 36587ED4 Accurately ripped (confidence 11) [5DBBF5CE] (AR v2) Copy OK
Track 2
Filename H:\BLOGGER\AA CD RIPPATI\Verdi Don Carlos Pappano 1996\CD3\02 Don Carlos- Act 4. Scene 1. Maudit soit le soupçon infâme.wav
Peak level 49.6 % Extraction speed 1.2 X Track quality 99.9 % Copy CRC 7BA7BA96 Accurately ripped (confidence 11) [B2C18566] (AR v2) Copy OK
Track 3
Filename H:\BLOGGER\AA CD RIPPATI\Verdi Don Carlos Pappano 1996\CD3\03 Don Carlos- Act 4. Scene 1. Scène & air. Pitié! Pardon pour la femme coupable!.wav
Peak level 69.2 % Extraction speed 1.5 X Track quality 100.0 % Copy CRC A076EFFF Accurately ripped (confidence 11) [E6F8C7CC] (AR v2) Copy OK
Track 4
Filename H:\BLOGGER\AA CD RIPPATI\Verdi Don Carlos Pappano 1996\CD3\04 Don Carlos- Act 4. Scene 1. O don fatal et détesté.wav
Peak level 93.3 % Extraction speed 1.5 X Track quality 99.9 % Copy CRC 990A8CE1 Accurately ripped (confidence 11) [55D6FED1] (AR v2) Copy OK
Track 5
Filename H:\BLOGGER\AA CD RIPPATI\Verdi Don Carlos Pappano 1996\CD3\05 Don Carlos- Act 4. Scene 2. Mort de Rodrigue. C'est moi, Carlos.wav
Peak level 22.8 % Extraction speed 1.6 X Track quality 100.0 % Copy CRC B6D48BA0 Accurately ripped (confidence 11) [7A7B7E66] (AR v2) Copy OK
Track 6
Filename H:\BLOGGER\AA CD RIPPATI\Verdi Don Carlos Pappano 1996\CD3\06 Don Carlos- Act 4. Scene 2. Oui, Carlos! C'est mon jour suprême.wav
Peak level 100.0 % Extraction speed 1.8 X Track quality 100.0 % Copy CRC 47E8ACBB Accurately ripped (confidence 11) [8EA1A6F1] (AR v2) Copy OK
Track 7
Filename H:\BLOGGER\AA CD RIPPATI\Verdi Don Carlos Pappano 1996\CD3\07 Don Carlos- Act 4. Scene 2. Carlos, écoute....wav
Peak level 52.5 % Extraction speed 1.8 X Track quality 100.0 % Copy CRC 40D1322A Accurately ripped (confidence 11) [CCFDE23B] (AR v2) Copy OK
Track 8
Filename H:\BLOGGER\AA CD RIPPATI\Verdi Don Carlos Pappano 1996\CD3\08 Don Carlos- Act 4. Scene 2. Finale. Mon fils, reprenez votre épée.wav
Peak level 58.3 % Extraction speed 2.1 X Track quality 100.0 % Copy CRC C284395B Accurately ripped (confidence 11) [9C16A601] (AR v2) Copy OK
Track 9
Filename H:\BLOGGER\AA CD RIPPATI\Verdi Don Carlos Pappano 1996\CD3\09 Don Carlos- Act 4. Scene 2. Ciel! Le tocsin!.wav
Peak level 98.4 % Extraction speed 2.1 X Track quality 100.0 % Copy CRC 0C5CC743 Accurately ripped (confidence 11) [4D3BEEC3] (AR v2) Copy OK
Track 10
Filename H:\BLOGGER\AA CD RIPPATI\Verdi Don Carlos Pappano 1996\CD3\10 Don Carlos- Act 5. Scène & air. Toi qui sus le néant des grandeurs de ce monde.wav
Peak level 80.7 % Extraction speed 2.4 X Track quality 100.0 % Copy CRC C566C9DB Accurately ripped (confidence 11) [D1E6F6E0] (AR v2) Copy OK
Track 11
Filename H:\BLOGGER\AA CD RIPPATI\Verdi Don Carlos Pappano 1996\CD3\11 Don Carlos- Act 5. Duo. C'est elle!.wav
Peak level 56.6 % Extraction speed 2.3 X Track quality 100.0 % Copy CRC FD179181 Accurately ripped (confidence 11) [ED8F04DF] (AR v2) Copy OK
Track 12
Filename H:\BLOGGER\AA CD RIPPATI\Verdi Don Carlos Pappano 1996\CD3\12 Don Carlos- Act 5. Au revoir dans un monde où la vie est meilleure.wav
Peak level 95.8 % Extraction speed 2.5 X Track quality 100.0 % Copy CRC AE5ECD8F Accurately ripped (confidence 11) [99501A39] (AR v2) Copy OK
All tracks accurately ripped
No errors occurred
End of status report

Треклист




Показать сообщения:    

Текущее время: 25-Янв 00:22

Часовой пояс: UTC + 3


Вы не можете начинать темы
Вы не можете отвечать на сообщения
Вы не можете редактировать свои сообщения
Вы не можете удалять свои сообщения
Вы не можете голосовать в опросах
Вы не можете прикреплять файлы к сообщениям
Вы не можете скачивать файлы