(Opera) Giuseppe Verdi - Otello / Джузеппе Верди - Отелло (John Barbirolli; James McCracken, Gwyneth Jones, Dietrich Fischer-Dieskau, Piero De Palma), 1968 - Studio recording / FLAC (tracks), lossless


 

[Цитировать]

Giuseppe Verdi - Otello / Джузеппе Верди - Отелло (John Barbirolli; James McCracken, Gwyneth Jones, Dietrich Fischer-Dieskau, Piero De Palma)
Жанр: Opera
Страна-производитель диска: CША
Год издания диска: 1997
Издатель (лейбл): EMI Classics
Дата записи: 1968
Аудиокодек: FLAC
Тип рипа: tracks
Битрейт аудио: lossless
Продолжительность: 131:04
Источник: релизер (Davide)
Исполнители:
Otello - James McCracken,
Desdemona - Gwyneth Jones,
Iago - Dietrich Fischer-Dieskau,
Cassio - Piero De Palma,
Rodrigo - Florindo Andreolli,
Lodovico - Alfredo Giacomotti,
Montano - Leonardo Monreal,
Emilia - Anna Di Stasio.
Conductor - John Barbirolli,
New Philharmonia Orchestra,
Ambrosian Opera Chorus.
Recorded at No. 1 Studio, Abbey Road, London, August, October-November 1968.

Лог создания рипаЛог создания рипа CD 1

Exact Audio Copy V1.0 beta 3 from 29. August 2011
EAC extraction logfile from 4. January 2016, 13:03
John Barbirolli, New Philharmonia Orchestra / Otello - CD1
Used drive : hp DVDRW DU8A5SHL Adapter: 0 ID: 0
Read mode : SecureUtilize accurate stream : YesDefeat audio cache : YesMake use of C2 pointers : No
Read offset correction : 6Overread into Lead-In and Lead-Out : NoFill up missing offset samples with silence : YesDelete leading and trailing silent blocks : NoNull samples used in CRC calculations : YesUsed interface : Native Win32 interface for Win NT & 2000Gap handling : Appended to previous track
Used output format : User Defined EncoderSelected bitrate : 768 kBit/sQuality : HighAdd ID3 tag : NoCommand line compressor : C:\Program Files (x86)\Exact Audio Copy\FLAC\FLAC.EXEAdditional command line options : -6 -V -T "ARTIST=%artist%" -T "TITLE=%title%" -T "ALBUM=%albumtitle%" -T "DATE=%year%" -T "TRACKNUMBER=%tracknr%" -T "GENRE=%genre%" -T "COMMENT=%comment%" -T "BAND=%albuminterpret%" -T "ALBUMARTIST=%albuminterpret%" -T "COMPOSER=%composer%" %haslyrics%--tag-from-file=LYRICS="%lyricsfile%"%haslyrics% -T "DISCNUMBER=%cdnumber%" -T "TOTALDISCS=%totalcds%" -T "TOTALTRACKS=%numtracks%" %hascover%--picture="%coverfile%"%hascover% %source% -o %dest%
TOC of the extracted CD
Track | Start | Length | Start sector | End sector --------------------------------------------------------- 1 | 0:00.33 | 4:14.40 | 33 | 19122 2 | 4:14.73 | 2:22.22 | 19123 | 29794 3 | 6:37.20 | 2:43.13 | 29795 | 42032 4 | 9:20.33 | 2:58.22 | 42033 | 55404 5 | 12:18.55 | 1:39.68 | 55405 | 62897 6 | 13:58.48 | 3:45.00 | 62898 | 79772 7 | 17:43.48 | 1:16.30 | 79773 | 85502 8 | 19:00.03 | 4:19.35 | 85503 | 104962 9 | 23:19.38 | 2:12.37 | 104963 | 114899 10 | 25:32.00 | 8:21.05 | 114900 | 152479 11 | 33:53.05 | 2:54.60 | 152480 | 165589 12 | 36:47.65 | 0:29.50 | 165590 | 167814 13 | 37:17.40 | 4:24.63 | 167815 | 187677 14 | 41:42.28 | 1:18.22 | 187678 | 193549 15 | 43:00.50 | 4:51.08 | 193550 | 215382 16 | 47:51.58 | 5:09.70 | 215383 | 238627 17 | 53:01.53 | 2:08.12 | 238628 | 248239 18 | 55:09.65 | 3:40.43 | 248240 | 264782 19 | 58:50.33 | 1:36.55 | 264783 | 272037 20 | 60:27.13 | 4:01.40 | 272038 | 290152 21 | 64:28.53 | 4:57.02 | 290153 | 312429 22 | 69:25.55 | 2:50.65 | 312430 | 325244
Track 1
Filename H:\BLOGGER\AA CD RIPPATI\Verdi Otello Barbirolli 1968\CD1\01 Atto Primo; Una vela! una vela! - Coro,Montano,CassioJago,Redorigo.wav
Peak level 96.5 % Extraction speed 2.0 X Track quality 100.0 % Copy CRC 76F69F16 Accurately ripped (confidence 6) [09E151B3] (AR v2) Copy OK
Track 2
Filename H:\BLOGGER\AA CD RIPPATI\Verdi Otello Barbirolli 1968\CD1\02 Esultate! - Otello,Coro.wav
Peak level 90.2 % Extraction speed 2.0 X Track quality 100.0 % Copy CRC D4F576A9 Accurately ripped (confidence 6) [39DDFC30] (AR v2) Copy OK
Track 3
Filename H:\BLOGGER\AA CD RIPPATI\Verdi Otello Barbirolli 1968\CD1\03 Roderigo, ebben, che pensi - Jago,Roderigo.wav
Peak level 55.4 % Extraction speed 2.1 X Track quality 100.0 % Copy CRC B88DE095 Accurately ripped (confidence 6) [505129C4] (AR v2) Copy OK
Track 4
Filename H:\BLOGGER\AA CD RIPPATI\Verdi Otello Barbirolli 1968\CD1\04 Fuoco di Gioia - Coro.wav
Peak level 77.6 % Extraction speed 1.9 X Track quality 99.9 % Copy CRC 244EA8F4 Accurately ripped (confidence 6) [E52AEFB8] (AR v2) Copy OK
Track 5
Filename H:\BLOGGER\AA CD RIPPATI\Verdi Otello Barbirolli 1968\CD1\05 Roderigo, beviam!.wav
Peak level 79.6 % Extraction speed 1.6 X Track quality 99.8 % Copy CRC 203B5CB6 Accurately ripped (confidence 6) [9116802F] (AR v2) Copy OK
Track 6
Filename H:\BLOGGER\AA CD RIPPATI\Verdi Otello Barbirolli 1968\CD1\06 Inaffia l'ugola! Trinca, tracanna! - Jago,Cassio,Coro,Roderigo.wav
Peak level 93.1 % Extraction speed 2.5 X Track quality 100.0 % Copy CRC 71EBBC76 Accurately ripped (confidence 6) [D58915F8] (AR v2) Copy OK
Track 7
Filename H:\BLOGGER\AA CD RIPPATI\Verdi Otello Barbirolli 1968\CD1\07 Capitano, v'attendre la fazione ai baluardi - Montano,Cassio,Jago,Roderigo,Coro.wav
Peak level 75.0 % Extraction speed 2.0 X Track quality 100.0 % Copy CRC 10653D6F Accurately ripped (confidence 6) [2982BCA3] (AR v2) Copy OK
Track 8
Filename H:\BLOGGER\AA CD RIPPATI\Verdi Otello Barbirolli 1968\CD1\08 Abbasso le spade! - Otello,Jago,Cassio,Montano.wav
Peak level 72.3 % Extraction speed 2.8 X Track quality 100.0 % Copy CRC DA676A5C Accurately ripped (confidence 6) [6B27B6A1] (AR v2) Copy OK
Track 9
Filename H:\BLOGGER\AA CD RIPPATI\Verdi Otello Barbirolli 1968\CD1\09 Già nella notte densa.wav
Peak level 36.2 % Extraction speed 2.1 X Track quality 99.9 % Copy CRC 5393C34A Accurately ripped (confidence 6) [E951636F] (AR v2) Copy OK
Track 10
Filename H:\BLOGGER\AA CD RIPPATI\Verdi Otello Barbirolli 1968\CD1\10 Quando narravi l'esule tua vita - Otello,Desdemona.wav
Peak level 85.3 % Extraction speed 3.2 X Track quality 100.0 % Copy CRC 6C607E09 Accurately ripped (confidence 6) [B5D85727] (AR v2) Copy OK
Track 11
Filename H:\BLOGGER\AA CD RIPPATI\Verdi Otello Barbirolli 1968\CD1\11 Atto Secondo- Non ti crucciar - Jago,Cassio.wav
Peak level 43.1 % Extraction speed 3.0 X Track quality 100.0 % Copy CRC 104D05AF Accurately ripped (confidence 6) [50B51803] (AR v2) Copy OK
Track 12
Filename H:\BLOGGER\AA CD RIPPATI\Verdi Otello Barbirolli 1968\CD1\12 Vanne; la tua meta già vedo.wav
Peak level 68.9 % Extraction speed 1.6 X Track quality 100.0 % Copy CRC DC34E88D Accurately ripped (confidence 6) [BAB40FB6] (AR v2) Copy OK
Track 13
Filename H:\BLOGGER\AA CD RIPPATI\Verdi Otello Barbirolli 1968\CD1\13 Credo in un Dio crudel.wav
Peak level 85.0 % Extraction speed 1.3 X Track quality 99.6 % Copy CRC A2E7C535 Cannot be verified as accurate (confidence 6) [1BAD56E4], AccurateRip returned [2BBD4998] (AR v2) Copy OK
Track 14
Filename H:\BLOGGER\AA CD RIPPATI\Verdi Otello Barbirolli 1968\CD1\14 Eccola...Cassio...a te - Jago.wav
Peak level 30.2 % Extraction speed 0.8 X Track quality 99.2 % Copy CRC B3D26A63 Cannot be verified as accurate (confidence 6) [341F29D3], AccurateRip returned [66AF38D0] (AR v2) Copy OK
Track 15
Filename H:\BLOGGER\AA CD RIPPATI\Verdi Otello Barbirolli 1968\CD1\15 Ciò m'accora -Jago,Otello.wav
Peak level 61.1 % Extraction speed 3.6 X Track quality 100.0 % Copy CRC 544E6FAE Accurately ripped (confidence 6) [42455D90] (AR v2) Copy OK
Track 16
Filename H:\BLOGGER\AA CD RIPPATI\Verdi Otello Barbirolli 1968\CD1\16 Dove guardi splendodo raggi - Coro,Jago,Desdemone,Otello.wav
Peak level 61.8 % Extraction speed 3.7 X Track quality 100.0 % Copy CRC 4B616F27 Accurately ripped (confidence 6) [6C73051F] (AR v2) Copy OK
Track 17
Filename H:\BLOGGER\AA CD RIPPATI\Verdi Otello Barbirolli 1968\CD1\17 D'un uom che geme sotto il tuo disdegno - Desdemona,Otello.wav
Peak level 71.8 % Extraction speed 2.7 X Track quality 99.9 % Copy CRC A0D46CF5 Accurately ripped (confidence 6) [FACF1E4C] (AR v2) Copy OK
Track 18
Filename H:\BLOGGER\AA CD RIPPATI\Verdi Otello Barbirolli 1968\CD1\18 Se inconscia contro te, sposo - Desdemona,Otello,Jago,Emilia.wav
Peak level 79.4 % Extraction speed 3.7 X Track quality 100.0 % Copy CRC 212BE789 Accurately ripped (confidence 6) [8D16C8D8] (AR v2) Copy OK
Track 19
Filename H:\BLOGGER\AA CD RIPPATI\Verdi Otello Barbirolli 1968\CD1\19 Desdemona rea!.wav
Peak level 80.1 % Extraction speed 3.2 X Track quality 100.0 % Copy CRC AE8F4532 Accurately ripped (confidence 6) [7ED33C51] (AR v2) Copy OK
Track 20
Filename H:\BLOGGER\AA CD RIPPATI\Verdi Otello Barbirolli 1968\CD1\20 Ora e per sempre addio.wav
Peak level 87.7 % Extraction speed 3.9 X Track quality 100.0 % Copy CRC 2BB22567 Accurately ripped (confidence 5) [356B0725] (AR v2) Copy OK
Track 21
Filename H:\BLOGGER\AA CD RIPPATI\Verdi Otello Barbirolli 1968\CD1\21 Era lo notte.wav
Peak level 94.4 % Extraction speed 4.1 X Track quality 100.0 % Copy CRC E3C282EC Accurately ripped (confidence 4) [7E481B55] (AR v2) Copy OK
Track 22
Filename H:\BLOGGER\AA CD RIPPATI\Verdi Otello Barbirolli 1968\CD1\22 Sì, pel ciel marmoreo giuro! -Otello,Jago.wav
Peak level 99.1 % Extraction speed 3.8 X Track quality 100.0 % Copy CRC 0AA67731 Accurately ripped (confidence 4) [CFBABCCE] (AR v2) Copy OK
20 track(s) accurately ripped 2 track(s) could not be verified as accurate
Some tracks could not be verified as accurate
No errors occurred
End of status report

Лог создания рипа CD 2

Exact Audio Copy V1.0 beta 3 from 29. August 2011
EAC extraction logfile from 4. January 2016, 13:50
John Barbirolli, New Philharmonia Orchestra / Otello - CD2
Used drive : hp DVDRW DU8A5SHL Adapter: 0 ID: 0
Read mode : SecureUtilize accurate stream : YesDefeat audio cache : YesMake use of C2 pointers : No
Read offset correction : 6Overread into Lead-In and Lead-Out : NoFill up missing offset samples with silence : YesDelete leading and trailing silent blocks : NoNull samples used in CRC calculations : YesUsed interface : Native Win32 interface for Win NT & 2000Gap handling : Appended to previous track
Used output format : User Defined EncoderSelected bitrate : 768 kBit/sQuality : HighAdd ID3 tag : NoCommand line compressor : C:\Program Files (x86)\Exact Audio Copy\FLAC\FLAC.EXEAdditional command line options : -6 -V -T "ARTIST=%artist%" -T "TITLE=%title%" -T "ALBUM=%albumtitle%" -T "DATE=%year%" -T "TRACKNUMBER=%tracknr%" -T "GENRE=%genre%" -T "COMMENT=%comment%" -T "BAND=%albuminterpret%" -T "ALBUMARTIST=%albuminterpret%" -T "COMPOSER=%composer%" %haslyrics%--tag-from-file=LYRICS="%lyricsfile%"%haslyrics% -T "DISCNUMBER=%cdnumber%" -T "TOTALDISCS=%totalcds%" -T "TOTALTRACKS=%numtracks%" %hascover%--picture="%coverfile%"%hascover% %source% -o %dest%
TOC of the extracted CD
Track | Start | Length | Start sector | End sector --------------------------------------------------------- 1 | 0:00.33 | 2:49.32 | 33 | 12739 2 | 2:49.65 | 5:15.23 | 12740 | 36387 3 | 8:05.13 | 5:40.72 | 36388 | 61959 4 | 13:46.10 | 4:35.08 | 61960 | 82592 5 | 18:21.18 | 4:17.55 | 82593 | 101922 6 | 22:38.73 | 2:04.52 | 101923 | 111274 7 | 24:43.50 | 1:20.53 | 111275 | 117327 8 | 26:04.28 | 4:09.45 | 117328 | 136047 9 | 30:13.73 | 1:50.52 | 136048 | 144349 10 | 32:04.50 | 7:42.43 | 144350 | 179042 11 | 39:47.18 | 1:40.60 | 179043 | 186602 12 | 41:28.03 | 4:01.10 | 186603 | 204687 13 | 45:29.13 | 1:08.57 | 204688 | 209844 14 | 46:37.70 | 7:57.25 | 209845 | 245644 15 | 54:35.20 | 5:33.05 | 245645 | 270624 16 | 60:08.25 | 6:17.03 | 270625 | 298902 17 | 66:25.28 | 2:23.27 | 298903 | 309654 18 | 68:48.55 | 1:28.03 | 309655 | 316257 19 | 70:16.58 | 5:21.30 | 316258 | 340362
Track 1
Filename H:\BLOGGER\AA CD RIPPATI\Verdi Otello Barbirolli 1968\CD2\01 La vedetta del porto ha segnalato.wav
Peak level 60.0 % Extraction speed 1.1 X Track quality 100.0 % Copy CRC 0AD70938 Accurately ripped (confidence 6) [02CEE1C6] (AR v2) Copy OK
Track 2
Filename H:\BLOGGER\AA CD RIPPATI\Verdi Otello Barbirolli 1968\CD2\02 Dio ti giocondi.wav
Peak level 84.2 % Extraction speed 1.4 X Track quality 100.0 % Copy CRC B24825D7 Accurately ripped (confidence 6) [0E1EEF4B] (AR v2) Copy OK
Track 3
Filename H:\BLOGGER\AA CD RIPPATI\Verdi Otello Barbirolli 1968\CD2\03 Esterrefatta fisso.wav
Peak level 85.2 % Extraction speed 1.4 X Track quality 99.9 % Copy CRC DEBD512E Accurately ripped (confidence 6) [9C9B9AE2] (AR v2) Copy OK
Track 4
Filename H:\BLOGGER\AA CD RIPPATI\Verdi Otello Barbirolli 1968\CD2\04 Dio! mio potevi scagliar.wav
Peak level 89.5 % Extraction speed 1.6 X Track quality 100.0 % Copy CRC 0A43BFD2 Accurately ripped (confidence 6) [F9F10656] (AR v2) Copy OK
Track 5
Filename H:\BLOGGER\AA CD RIPPATI\Verdi Otello Barbirolli 1968\CD2\05 Vieni, I'aula è deserta.wav
Peak level 64.0 % Extraction speed 1.7 X Track quality 100.0 % Copy CRC 9356C78D Accurately ripped (confidence 6) [9C062002] (AR v2) Copy OK
Track 6
Filename H:\BLOGGER\AA CD RIPPATI\Verdi Otello Barbirolli 1968\CD2\06 Questa è una ragna.wav
Peak level 69.1 % Extraction speed 1.6 X Track quality 100.0 % Copy CRC 47748C57 Accurately ripped (confidence 6) [01202D5E] (AR v2) Copy OK
Track 7
Filename H:\BLOGGER\AA CD RIPPATI\Verdi Otello Barbirolli 1968\CD2\07 Come la ucciderò.wav
Peak level 42.9 % Extraction speed 1.4 X Track quality 100.0 % Copy CRC 2AEDB9AA Accurately ripped (confidence 6) [484ABEE0] (AR v2) Copy OK
Track 8
Filename H:\BLOGGER\AA CD RIPPATI\Verdi Otello Barbirolli 1968\CD2\08 Viva! Evviva! Viva il Leon di San Marco.wav
Peak level 99.0 % Extraction speed 1.9 X Track quality 100.0 % Copy CRC 0E85ED15 Accurately ripped (confidence 6) [B6E7E973] (AR v2) Copy OK
Track 9
Filename H:\BLOGGER\AA CD RIPPATI\Verdi Otello Barbirolli 1968\CD2\09 Messeri! Il doge....wav
Peak level 83.5 % Extraction speed 1.7 X Track quality 100.0 % Copy CRC 878DB606 Accurately ripped (confidence 6) [51E37EE0] (AR v2) Copy OK
Track 10
Filename H:\BLOGGER\AA CD RIPPATI\Verdi Otello Barbirolli 1968\CD2\10 A terra...sì...nel livido fango....wav
Peak level 82.8 % Extraction speed 2.2 X Track quality 100.0 % Copy CRC B7E4E7CB Accurately ripped (confidence 6) [5C34D269] (AR v2) Copy OK
Track 11
Filename H:\BLOGGER\AA CD RIPPATI\Verdi Otello Barbirolli 1968\CD2\11 Fuggirmi io sol non so...SANGUE!.wav
Peak level 95.1 % Extraction speed 1.7 X Track quality 100.0 % Copy CRC 26990AAF Accurately ripped (confidence 6) [D51AF585] (AR v2) Copy OK
Track 12
Filename H:\BLOGGER\AA CD RIPPATI\Verdi Otello Barbirolli 1968\CD2\12 Era più calmo.wav
Peak level 42.8 % Extraction speed 2.1 X Track quality 100.0 % Copy CRC 592F1FAB Accurately ripped (confidence 6) [DC072FD0] (AR v2) Copy OK
Track 13
Filename H:\BLOGGER\AA CD RIPPATI\Verdi Otello Barbirolli 1968\CD2\13 Mia madre aveva una povera ancella.wav
Peak level 28.3 % Extraction speed 1.6 X Track quality 100.0 % Copy CRC 02FDB113 Accurately ripped (confidence 6) [72C12D09] (AR v2) Copy OK
Track 14
Filename H:\BLOGGER\AA CD RIPPATI\Verdi Otello Barbirolli 1968\CD2\14 Piangea cantando nell'erma landa.wav
Peak level 62.3 % Extraction speed 2.4 X Track quality 100.0 % Copy CRC A293FFD0 Accurately ripped (confidence 6) [F49CE31C] (AR v2) Copy OK
Track 15
Filename H:\BLOGGER\AA CD RIPPATI\Verdi Otello Barbirolli 1968\CD2\15 Ave Maria, piena di grazia.wav
Peak level 55.2 % Extraction speed 2.5 X Track quality 100.0 % Copy CRC 742C97FC Accurately ripped (confidence 6) [D0A808CE] (AR v2) Copy OK
Track 16
Filename H:\BLOGGER\AA CD RIPPATI\Verdi Otello Barbirolli 1968\CD2\16 Chi è là Aprite!.wav
Peak level 91.9 % Extraction speed 2.6 X Track quality 100.0 % Copy CRC 31DE6497 Accurately ripped (confidence 6) [879B26E0] (AR v2) Copy OK
Track 17
Filename H:\BLOGGER\AA CD RIPPATI\Verdi Otello Barbirolli 1968\CD2\17 Aprite! Aprite!.wav
Peak level 62.6 % Extraction speed 2.3 X Track quality 100.0 % Copy CRC 94DF2B64 Accurately ripped (confidence 6) [838B901D] (AR v2) Copy OK
Track 18
Filename H:\BLOGGER\AA CD RIPPATI\Verdi Otello Barbirolli 1968\CD2\18 Quai grida!.wav
Peak level 69.2 % Extraction speed 2.1 X Track quality 100.0 % Copy CRC FF65E4EE Accurately ripped (confidence 6) [05E363D0] (AR v2) Copy OK
Track 19
Filename H:\BLOGGER\AA CD RIPPATI\Verdi Otello Barbirolli 1968\CD2\19 Niun mi tema.wav
Peak level 47.6 % Extraction speed 2.4 X Track quality 99.9 % Copy CRC 35C5BCED Accurately ripped (confidence 6) [6CD61048] (AR v2) Copy OK
All tracks accurately ripped
No errors occurred
End of status report

Треклист




Показать сообщения:    

Текущее время: 04-Дек 06:53

Часовой пояс: UTC + 3


Вы не можете начинать темы
Вы не можете отвечать на сообщения
Вы не можете редактировать свои сообщения
Вы не можете удалять свои сообщения
Вы не можете голосовать в опросах
Вы не можете прикреплять файлы к сообщениям
Вы не можете скачивать файлы