(Classical, Romantic Period, Chamber Music, Recital) Grieg: Piano Sonata, Lyric Pieces op.43 & 54 - Leif Ove Andsnes - 1993, FLAC (image+.cue) lossless


 

[Цитировать]

Grieg: Piano Sonata, Lyric Pieces op.43 & 54 - Leif Ove Andsnes
Жанр: Classical, Romantic Period, Chamber Music, Recitals, Sonata, Character Piece, March, Nocturne, Sonatina, Scherzo, Song Without Words
Страна-производитель диска: Germany
Дата: July 20, 1993
Лейбл: Virgin Classics
Номер по каталогу: VC759300-2
Дата записи: 1993
Аудиокодек: FLAC
Тип рипа: image+.cue
Битрейт аудио: lossless
Продолжительность: 01:11:50
Источник: net
Наличие сканов в содержимом раздачи: да
Composer: Edvard Grieg (1843-1907)
Performer: Leif Ove Andsnes - piano

Треклист:
Piano Sonata in E minor, Op. 7
01. Allegro moderato (04:35)
02. Andante molto (04:49)
03. Alla Menuetto (03:49)
04. Finale. Molto allegro (06:07)
Poetic Tone-Pictures (6) for piano, Op. 3
05. Nos. 4, 5 & 6 (03:39)
06. Nos. 4, 5 & 6 (01:30)
07. Nos. 4, 5 & 6 (00:46)
Album Leaves (4) for piano, Op. 28
08. Nos. 01 & 04 (01:33)
09. Nos. 01 & 04 (04:33)
10. Agitato for piano, EG 106 (03:07)
Lyric Pieces (6) for piano, Book 3, Op. 43
11. Butterfly (01:40)
12. Lone wanderer (02:16)
13. In my native land (02:32)
14. Little bird (01:36)
15. Erotik (02:53)
16. To the spring (03:06)
Lyric Pieces (6) for piano, Book 5, Op. 54
17. Herdboy (04:19)
18. Norwegian March (03:24)
19. March of the Trolls (03:05)
20. Notturno (04:17)
21. Scherzo (03:16)
22. Bell Ringing (04:57)

Лог создания рипа

Exact Audio Copy V1.0 beta 3 from 29. August 2011
EAC extraction logfile from 8. January 2013, 19:09
Leif Ove Andsnes / Grieg - Piano Sonata, Lyric Pieces op.43, op.54 - Andsnes
Used drive : TSSTcorpCDDVDW SH-222BB Adapter: 2 ID: 1
Read mode : SecureUtilize accurate stream : YesDefeat audio cache : YesMake use of C2 pointers : No
Read offset correction : 6Overread into Lead-In and Lead-Out : NoFill up missing offset samples with silence : YesDelete leading and trailing silent blocks : NoNull samples used in CRC calculations : YesUsed interface : Native Win32 interface for Win NT & 2000
Used output format : User Defined EncoderSelected bitrate : 1024 kBit/sQuality : HighAdd ID3 tag : NoCommand line compressor : C:\Program Files\Exact Audio Copy\Flac\flac.exeAdditional command line options : -8 -V -T "TITLE=%title%" -T "ARTIST=%artist%" -T "ALBUMARTIST=%albumartist%" -T "ALBUM=%albumtitle%" -T "DATE=%year%" -T "TRACKNUMBER=%tracknr%" -T "TRACKTOTAL=%numtracks%" -T "GENRE=%genre%" -T "COMMENT=%comment%" -T "PERFORMER=%albuminterpret%" -T "COMPOSER=%composer%" %source% -o %dest%
TOC of the extracted CD
Track | Start | Length | Start sector | End sector --------------------------------------------------------- 1 | 0:00.00 | 4:35.08 | 0 | 20632 2 | 4:35.08 | 4:48.62 | 20633 | 42294 3 | 9:23.70 | 3:49.15 | 42295 | 59484 4 | 13:13.10 | 6:06.68 | 59485 | 87002 5 | 19:20.03 | 3:39.32 | 87003 | 103459 6 | 22:59.35 | 1:30.20 | 103460 | 110229 7 | 24:29.55 | 0:46.20 | 110230 | 113699 8 | 25:16.00 | 1:33.18 | 113700 | 120692 9 | 26:49.18 | 4:33.12 | 120693 | 141179 10 | 31:22.30 | 3:07.00 | 141180 | 155204 11 | 34:29.30 | 1:40.13 | 155205 | 162717 12 | 36:09.43 | 2:15.60 | 162718 | 172902 13 | 38:25.28 | 2:32.25 | 172903 | 184327 14 | 40:57.53 | 1:36.15 | 184328 | 191542 15 | 42:33.68 | 2:52.50 | 191543 | 204492 16 | 45:26.43 | 3:05.72 | 204493 | 218439 17 | 48:32.40 | 4:19.10 | 218440 | 237874 18 | 52:51.50 | 3:24.10 | 237875 | 253184 19 | 56:15.60 | 3:04.63 | 253185 | 267047 20 | 59:20.48 | 4:17.12 | 267048 | 286334 21 | 63:37.60 | 3:16.05 | 286335 | 301039 22 | 66:53.65 | 4:56.40 | 301040 | 323279
Range status and errors
Selected range
Filename G:\Ripped general\[1531] Grieg - Piano Sonata, Lyric Pieces op.43, op.54 – Andsnes\Grieg - Piano Sonata, Lyric Pieces op.43, op.54 - Andsnes.wav
Peak level 92.5 % Extraction speed 8.0 X Range quality 100.0 % Test CRC 5130E6A7 Copy CRC 5130E6A7 Copy OK
No errors occurred
AccurateRip summary
Track 1 accurately ripped (confidence 11) [67C4EE10] (AR v1)Track 2 accurately ripped (confidence 12) [F789CF59] (AR v1)Track 3 accurately ripped (confidence 12) [A4855A39] (AR v1)Track 4 accurately ripped (confidence 12) [96342B48] (AR v1)Track 5 accurately ripped (confidence 12) [5D690422] (AR v1)Track 6 accurately ripped (confidence 12) [09D7440B] (AR v1)Track 7 accurately ripped (confidence 12) [3C2DF9B7] (AR v1)Track 8 accurately ripped (confidence 12) [E71702AC] (AR v1)Track 9 accurately ripped (confidence 12) [4B6B158B] (AR v1)Track 10 accurately ripped (confidence 12) [9138E966] (AR v1)Track 11 accurately ripped (confidence 12) [A6C51F44] (AR v1)Track 12 accurately ripped (confidence 12) [F3A007DD] (AR v1)Track 13 accurately ripped (confidence 12) [3BAAAEDA] (AR v1)Track 14 accurately ripped (confidence 12) [04EC1466] (AR v1)Track 15 accurately ripped (confidence 12) [B866AC7D] (AR v1)Track 16 accurately ripped (confidence 12) [D793E498] (AR v1)Track 17 accurately ripped (confidence 12) [87D704DD] (AR v1)Track 18 accurately ripped (confidence 12) [34446A68] (AR v1)Track 19 accurately ripped (confidence 12) [C45EF807] (AR v1)Track 20 accurately ripped (confidence 12) [0039984F] (AR v1)Track 21 accurately ripped (confidence 13) [FA8B5A0D] (AR v1)Track 22 accurately ripped (confidence 13) [B4171420] (AR v1)
All tracks accurately ripped
End of status report

Содержание индексной карты (.CUE)

REM GENRE ClassicalREM DATE 1993REM DISCID 4310D616REM COMMENT "ExactAudioCopy v1.0b3"PERFORMER "Leif Ove Andsnes"TITLE "Grieg - Piano Sonata, Lyric Pieces op.43, op.54 - Andsnes"FILE "Grieg - Piano Sonata, Lyric Pieces op.43, op.54 - Andsnes.flac" WAVE TRACK 01 AUDIO TITLE "Piano Sonata in E minor, Op. 7- No. 1, Allegro moderato" PERFORMER "Leif Ove Andsnes" INDEX 01 00:00:00 TRACK 02 AUDIO TITLE "Piano Sonata in E minor, Op. 7- No. 2, Andante molto" PERFORMER "Leif Ove Andsnes" INDEX 01 04:35:08 TRACK 03 AUDIO TITLE "Piano Sonata in E minor, Op. 7- No. 3, Alla Menuetto" PERFORMER "Leif Ove Andsnes" INDEX 01 09:23:70 TRACK 04 AUDIO TITLE "Piano Sonata in E minor, Op. 7- No. 4, Finale. Molto allegro" PERFORMER "Leif Ove Andsnes" INDEX 01 13:13:10 TRACK 05 AUDIO TITLE "Poetic Tone-Pictures (6) for piano, Op. 3- Nos. 4, 5 & 6" PERFORMER "Leif Ove Andsnes" INDEX 01 19:20:03 TRACK 06 AUDIO TITLE "Poetic Tone-Pictures (6) for piano, Op. 3- Nos. 4, 5 & 6" PERFORMER "Leif Ove Andsnes" INDEX 01 22:59:35 TRACK 07 AUDIO TITLE "Poetic Tone-Pictures (6) for piano, Op. 3- Nos. 4, 5 & 6" PERFORMER "Leif Ove Andsnes" INDEX 01 24:29:55 TRACK 08 AUDIO TITLE "Album Leaves (4) for piano, Op. 28- Nos. 01 & 04" PERFORMER "Leif Ove Andsnes" INDEX 01 25:16:00 TRACK 09 AUDIO TITLE "Album Leaves (4) for piano, Op. 28- Nos. 01 & 04" PERFORMER "Leif Ove Andsnes" INDEX 01 26:49:18 TRACK 10 AUDIO TITLE "Agitato for piano, EG 106" PERFORMER "Leif Ove Andsnes" INDEX 01 31:22:30 TRACK 11 AUDIO TITLE "Lyric Pieces (6) for piano, Book 3, Op. 43- No. 1, Butterfly" PERFORMER "Leif Ove Andsnes" INDEX 01 34:29:30 TRACK 12 AUDIO TITLE "Lyric Pieces (6) for piano, Book 3, Op. 43- No. 2, Lone wanderer" PERFORMER "Leif Ove Andsnes" INDEX 01 36:09:43 TRACK 13 AUDIO TITLE "Lyric Pieces (6) for piano, Book 3, Op. 43- No. 3, In my native land" PERFORMER "Leif Ove Andsnes" INDEX 01 38:25:28 TRACK 14 AUDIO TITLE "Lyric Pieces (6) for piano, Book 3, Op. 43- No. 4, Little bird" PERFORMER "Leif Ove Andsnes" INDEX 01 40:57:53 TRACK 15 AUDIO TITLE "Lyric Pieces (6) for piano, Book 3, Op. 43- No. 5, Erotik" PERFORMER "Leif Ove Andsnes" INDEX 01 42:33:68 TRACK 16 AUDIO TITLE "Lyric Pieces (6) for piano, Book 3, Op. 43- No. 6, To the spring" PERFORMER "Leif Ove Andsnes" INDEX 01 45:26:43 TRACK 17 AUDIO TITLE "Lyric Pieces (6) for piano, Book 5, Op. 54- No 1 Herdboy" PERFORMER "Leif Ove Andsnes" INDEX 01 48:32:40 TRACK 18 AUDIO TITLE "Lyric Pieces (6) for piano, Book 5, Op. 54- No 2 Norwegian March" PERFORMER "Leif Ove Andsnes" INDEX 01 52:51:50 TRACK 19 AUDIO TITLE "Lyric Pieces (6) for piano, Book 5, Op. 54- No 3 March of the Trolls" PERFORMER "Leif Ove Andsnes" INDEX 01 56:15:60 TRACK 20 AUDIO TITLE "Lyric Pieces (6) for piano, Book 5, Op. 54- No 4 Notturno" PERFORMER "Leif Ove Andsnes" INDEX 01 59:20:48 TRACK 21 AUDIO TITLE "Lyric Pieces (6) for piano, Book 5, Op. 54- No 5 Scherzo" PERFORMER "Leif Ove Andsnes" INDEX 01 63:37:60 TRACK 22 AUDIO TITLE "Lyric Pieces (6) for piano, Book 5, Op. 54- No 6 Bell Ringing" PERFORMER "Leif Ove Andsnes" INDEX 01 66:53:65

Лог проверки качества

-----------------------
DON'T MODIFY THIS FILE
-----------------------
PERFORMER: auCDtect Task Manager, ver. 1.5.1RC6 build 1.5.1.7Copyright (c) 2008-2010 y-soft. All rights reservedhttp://y-soft.org
ANALYZER: auCDtect: CD records authenticity detector, version 0.8.2Copyright (c) 2004 Oleg Berngardt. All rights reserved.Copyright (c) 2004 Alexander Djourik. All rights reserved.
FILE: Grieg - Piano Sonata, Lyric Pieces op.43, op.54 - Andsnes.flac Size: 181180682 Hash: 24B28A82D6F63916C6ADF174918CC8DE Accuracy: -m0 Conclusion: CDDA 43% Signature: 7914DE66EFF528A409EBA0FE61762358FD583369



Показать сообщения:    

Текущее время: 08-Дек 19:11

Часовой пояс: UTC + 3


Вы не можете начинать темы
Вы не можете отвечать на сообщения
Вы не можете редактировать свои сообщения
Вы не можете удалять свои сообщения
Вы не можете голосовать в опросах
Вы не можете прикреплять файлы к сообщениям
Вы не можете скачивать файлы