(Classical/Chamber) Robert Schumann: Piano Trios Op. 63 & 110 (Voces Intimae) - 2011, FLAC (tracks+.cue) lossless


 

[Цитировать]

Voces Intimae — Robert Schumann: Piano Trios Op. 63 & 110-Classical/Chamber • Challenge Classics • CC72520 • 2011 • lossless • FLAC • tracks+.cue • 00:58:38 • what.cd • scans-01-04. Piano Trio in D minor Op. 63
05-08. Piano Trio in G minor Op. 110
-Voces Intimae:
Riccardo Cecchetti - piano (J.B. Streicher, 1847)
Luigi De Filippi - violin (A. Mariani, 1648)
Sandro Meo - cello (C. Bergonzi, copy from late 1700)
Recording: FWL Studios, Leipzig, Germany, 19-22 May 2011-

cue

TITLE "Schumann - Piano Trios Op. 63 & 110 - Voces Intimae [Challenge Classics]"
PERFORMER "Voces Intimae"
REM GENRE "Classical"
REM DATE "2011"
REM DISCNUMBER 1
REM TOTALDISCS 1
REM DISCID 720DBE08
REM REPLAYGAIN_ALBUM_GAIN 2.71 dB
REM REPLAYGAIN_ALBUM_PEAK 0.999969
FILE "01 Piano Trio in D minor Op. 63: I. Mit Energie und Leidenschaft.flac" WAVE
TRACK 01 AUDIO
TITLE "Piano Trio in D minor Op. 63: I. Mit Energie und Leidenschaft"
PERFORMER "Voces Intimae"
SONGWRITER "Robert Schumann"
ISRC NLB151100754
FLAGS DCP
REM COMMENT "Voces Intimae (Fortepiano (J.B. Streicher, 1847): Riccardo Cecchetti/Violin (A. Mariani, 1648): Luigi De Filippi/Cello (C. Bergonzi, copy from late 1700): Sandro Meo). Recording: FWL Studios, Leipzig, Germany, 19-22 May 2011."
REM REPLAYGAIN_TRACK_GAIN 2.68 dB
REM REPLAYGAIN_TRACK_PEAK 0.639313
INDEX 01 00:00:00
FILE "02 Piano Trio in D minor Op. 63: II. Lebhaft, doch nicht zu rasch.flac" WAVE
TRACK 02 AUDIO
TITLE "Piano Trio in D minor Op. 63: II. Lebhaft, doch nicht zu rasch"
PERFORMER "Voces Intimae"
SONGWRITER "Robert Schumann"
ISRC NLB151100755
FLAGS DCP
REM COMMENT "Voces Intimae (Fortepiano (J.B. Streicher, 1847): Riccardo Cecchetti/Violin (A. Mariani, 1648): Luigi De Filippi/Cello (C. Bergonzi, copy from late 1700): Sandro Meo). Recording: FWL Studios, Leipzig, Germany, 19-22 May 2011."
REM REPLAYGAIN_TRACK_GAIN 1.31 dB
REM REPLAYGAIN_TRACK_PEAK 0.879578
INDEX 01 00:00:00
FILE "03 Piano Trio in D minor Op. 63: III. Langsam, mit inniger Empfindung.flac" WAVE
TRACK 03 AUDIO
TITLE "Piano Trio in D minor Op. 63: III. Langsam, mit inniger Empfindung"
PERFORMER "Voces Intimae"
SONGWRITER "Robert Schumann"
ISRC NLB151100756
FLAGS DCP
REM COMMENT "Voces Intimae (Fortepiano (J.B. Streicher, 1847): Riccardo Cecchetti/Violin (A. Mariani, 1648): Luigi De Filippi/Cello (C. Bergonzi, copy from late 1700): Sandro Meo). Recording: FWL Studios, Leipzig, Germany, 19-22 May 2011."
REM REPLAYGAIN_TRACK_GAIN 9.02 dB
REM REPLAYGAIN_TRACK_PEAK 0.305206
INDEX 01 00:00:00
FILE "04 Piano Trio in D minor Op. 63: IV. Mit Feuer.flac" WAVE
TRACK 04 AUDIO
TITLE "Piano Trio in D minor Op. 63: IV. Mit Feuer"
PERFORMER "Voces Intimae"
SONGWRITER "Robert Schumann"
ISRC NLB151100757
FLAGS DCP
REM COMMENT "Voces Intimae (Fortepiano (J.B. Streicher, 1847): Riccardo Cecchetti/Violin (A. Mariani, 1648): Luigi De Filippi/Cello (C. Bergonzi, copy from late 1700): Sandro Meo). Recording: FWL Studios, Leipzig, Germany, 19-22 May 2011."
REM REPLAYGAIN_TRACK_GAIN 1.59 dB
REM REPLAYGAIN_TRACK_PEAK 0.999969
INDEX 01 00:00:00
FILE "05 Piano Trio in G minor Op. 110: I. Bewegt, doch nicht zu rasch.flac" WAVE
TRACK 05 AUDIO
TITLE "Piano Trio in G minor Op. 110: I. Bewegt, doch nicht zu rasch"
PERFORMER "Voces Intimae"
SONGWRITER "Robert Schumann"
ISRC NLB151100758
FLAGS DCP
REM COMMENT "Voces Intimae (Fortepiano (J.B. Streicher, 1847): Riccardo Cecchetti/Violin (A. Mariani, 1648): Luigi De Filippi/Cello (C. Bergonzi, copy from late 1700): Sandro Meo). Recording: FWL Studios, Leipzig, Germany, 19-22 May 2011."
REM REPLAYGAIN_TRACK_GAIN 3.92 dB
REM REPLAYGAIN_TRACK_PEAK 0.701904
INDEX 01 00:00:00
FILE "06 Piano Trio in G minor Op. 110: II. Ziemlich langsam.flac" WAVE
TRACK 06 AUDIO
TITLE "Piano Trio in G minor Op. 110: II. Ziemlich langsam"
PERFORMER "Voces Intimae"
SONGWRITER "Robert Schumann"
ISRC NLB151100759
FLAGS DCP
REM COMMENT "Voces Intimae (Fortepiano (J.B. Streicher, 1847): Riccardo Cecchetti/Violin (A. Mariani, 1648): Luigi De Filippi/Cello (C. Bergonzi, copy from late 1700): Sandro Meo). Recording: FWL Studios, Leipzig, Germany, 19-22 May 2011."
REM REPLAYGAIN_TRACK_GAIN 3.84 dB
REM REPLAYGAIN_TRACK_PEAK 0.906677
INDEX 01 00:00:00
FILE "07 Piano Trio in G minor Op. 110: III. Rasch.flac" WAVE
TRACK 07 AUDIO
TITLE "Piano Trio in G minor Op. 110: III. Rasch"
PERFORMER "Voces Intimae"
SONGWRITER "Robert Schumann"
ISRC NLB151100760
FLAGS DCP
REM COMMENT "Voces Intimae (Fortepiano (J.B. Streicher, 1847): Riccardo Cecchetti/Violin (A. Mariani, 1648): Luigi De Filippi/Cello (C. Bergonzi, copy from late 1700): Sandro Meo). Recording: FWL Studios, Leipzig, Germany, 19-22 May 2011."
REM REPLAYGAIN_TRACK_GAIN 2.82 dB
REM REPLAYGAIN_TRACK_PEAK 0.587006
INDEX 01 00:00:00
FILE "08 Piano Trio in G minor Op. 110: IV. Kräftig, mit Humor.flac" WAVE
TRACK 08 AUDIO
TITLE "Piano Trio in G minor Op. 110: IV. Kräftig, mit Humor"
PERFORMER "Voces Intimae"
SONGWRITER "Robert Schumann"
ISRC NLB151100761
FLAGS DCP
REM COMMENT "Voces Intimae (Fortepiano (J.B. Streicher, 1847): Riccardo Cecchetti/Violin (A. Mariani, 1648): Luigi De Filippi/Cello (C. Bergonzi, copy from late 1700): Sandro Meo). Recording: FWL Studios, Leipzig, Germany, 19-22 May 2011."
REM REPLAYGAIN_TRACK_GAIN 2.46 dB
REM REPLAYGAIN_TRACK_PEAK 0.795898
INDEX 01 00:00:00

EAC

X Lossless Decoder version 20140504 (147.0)
XLD extraction logfile from 2014-05-06 14:22:55 +0200
Voces Intimae / Schumann - Piano Trios Op. 63 & 110 - Voces Intimae [Challenge Classics]
Used drive : TSSTcorp CDDVDW SE-S084D (revision TS01)
Media type : Pressed CD
Ripper mode : XLD Secure Ripper
Disable audio cache : OK for the drive with a cache less than 1375KiB
Make use of C2 pointers : NO
Read offset correction : 6
Max retry count : 100
Gap status : Analyzed, Appended (except HTOA)
TOC of the extracted CD
Track | Start | Length | Start sector | End sector
---------------------------------------------------------
1 | 00:00:00 | 12:16:57 | 0 | 55256
2 | 12:16:57 | 04:54:49 | 55257 | 77355
3 | 17:11:31 | 05:20:29 | 77356 | 101384
4 | 22:31:60 | 08:12:68 | 101385 | 138352
5 | 30:44:53 | 10:29:73 | 138353 | 185600
6 | 41:14:51 | 05:17:12 | 185601 | 209387
7 | 46:31:63 | 04:33:48 | 209388 | 229910
8 | 51:05:36 | 07:33:36 | 229911 | 263921
AccurateRip Summary (DiscID: 00133e75-007da344-720dbe08)
Track 01 : OK (v2, confidence 1/1)
Track 02 : OK (v2, confidence 1/1)
Track 03 : OK (v2, confidence 1/1)
Track 04 : OK (v2, confidence 1/1)
Track 05 : OK (v2, confidence 1/1)
Track 06 : OK (v2, confidence 1/1)
Track 07 : OK (v2, confidence 1/1)
Track 08 : OK (v2, confidence 1/1)
->All tracks accurately ripped.
All Tracks
Album gain : 2.71 dB
Peak : 0.999969
Statistics
Read error : 0
Jitter error (maybe fixed) : 0
Retry sector count : 0
Damaged sector count : 0
Track 01
Filename : /Volumes/4TB 2/CD rips/Schumann - Piano Trios Op. 63 & 110 - Voces Intimae [Challenge Classics]/01 Piano Trio in D minor Op. 63: I. Mit Energie und Leidenschaft.flac
Pre-gap length : 00:02:00
Track gain : 2.68 dB
Peak : 0.639313
CRC32 hash (test run) : 97056428
CRC32 hash : 97056428
CRC32 hash (skip zero) : 57DB4AF3
AccurateRip v1 signature : C9A100ED
AccurateRip v2 signature : 3961246D
->Accurately ripped (v2, confidence 1/1)
Statistics
Read error : 0
Jitter error (maybe fixed) : 0
Retry sector count : 0
Damaged sector count : 0
Track 02
Filename : /Volumes/4TB 2/CD rips/Schumann - Piano Trios Op. 63 & 110 - Voces Intimae [Challenge Classics]/02 Piano Trio in D minor Op. 63: II. Lebhaft, doch nicht zu rasch.flac
Track gain : 1.31 dB
Peak : 0.879578
CRC32 hash (test run) : 681CC334
CRC32 hash : 681CC334
CRC32 hash (skip zero) : 54DA6AFE
AccurateRip v1 signature : 8B6AD288
AccurateRip v2 signature : BD9B3A11
->Accurately ripped (v2, confidence 1/1)
Statistics
Read error : 0
Jitter error (maybe fixed) : 0
Retry sector count : 0
Damaged sector count : 0
Track 03
Filename : /Volumes/4TB 2/CD rips/Schumann - Piano Trios Op. 63 & 110 - Voces Intimae [Challenge Classics]/03 Piano Trio in D minor Op. 63: III. Langsam, mit inniger Empfindung.flac
Track gain : 9.02 dB
Peak : 0.305206
CRC32 hash (test run) : 5D5AA346
CRC32 hash : 5D5AA346
CRC32 hash (skip zero) : 358B922B
AccurateRip v1 signature : 4DAFF740
AccurateRip v2 signature : F827B3C9
->Accurately ripped (v2, confidence 1/1)
Statistics
Read error : 0
Jitter error (maybe fixed) : 0
Retry sector count : 0
Damaged sector count : 0
Track 04
Filename : /Volumes/4TB 2/CD rips/Schumann - Piano Trios Op. 63 & 110 - Voces Intimae [Challenge Classics]/04 Piano Trio in D minor Op. 63: IV. Mit Feuer.flac
Track gain : 1.59 dB
Peak : 0.999969
CRC32 hash (test run) : 6AEA71BD
CRC32 hash : 6AEA71BD
CRC32 hash (skip zero) : F3747886
AccurateRip v1 signature : CB5D2750
AccurateRip v2 signature : 524D6DF0
->Accurately ripped (v2, confidence 1/1)
Statistics
Read error : 0
Jitter error (maybe fixed) : 0
Retry sector count : 0
Damaged sector count : 0
Track 05
Filename : /Volumes/4TB 2/CD rips/Schumann - Piano Trios Op. 63 & 110 - Voces Intimae [Challenge Classics]/05 Piano Trio in G minor Op. 110: I. Bewegt, doch nicht zu rasch.flac
Track gain : 3.92 dB
Peak : 0.701904
CRC32 hash (test run) : 02C535AC
CRC32 hash : 02C535AC
CRC32 hash (skip zero) : 5E167D32
AccurateRip v1 signature : B68F90A8
AccurateRip v2 signature : 78C6C069
->Accurately ripped (v2, confidence 1/1)
Statistics
Read error : 0
Jitter error (maybe fixed) : 0
Retry sector count : 0
Damaged sector count : 0
Track 06
Filename : /Volumes/4TB 2/CD rips/Schumann - Piano Trios Op. 63 & 110 - Voces Intimae [Challenge Classics]/06 Piano Trio in G minor Op. 110: II. Ziemlich langsam.flac
Track gain : 3.84 dB
Peak : 0.906677
CRC32 hash (test run) : AE121E1C
CRC32 hash : AE121E1C
CRC32 hash (skip zero) : 9559105D
AccurateRip v1 signature : 1B8881FD
AccurateRip v2 signature : A1C44689
->Accurately ripped (v2, confidence 1/1)
Statistics
Read error : 0
Jitter error (maybe fixed) : 0
Retry sector count : 0
Damaged sector count : 0
Track 07
Filename : /Volumes/4TB 2/CD rips/Schumann - Piano Trios Op. 63 & 110 - Voces Intimae [Challenge Classics]/07 Piano Trio in G minor Op. 110: III. Rasch.flac
Track gain : 2.82 dB
Peak : 0.587006
CRC32 hash (test run) : 2CCAD09D
CRC32 hash : 2CCAD09D
CRC32 hash (skip zero) : D6E82DA2
AccurateRip v1 signature : B07AC3EA
AccurateRip v2 signature : DD7022F5
->Accurately ripped (v2, confidence 1/1)
Statistics
Read error : 0
Jitter error (maybe fixed) : 0
Retry sector count : 0
Damaged sector count : 0
Track 08
Filename : /Volumes/4TB 2/CD rips/Schumann - Piano Trios Op. 63 & 110 - Voces Intimae [Challenge Classics]/08 Piano Trio in G minor Op. 110: IV. Kräftig, mit Humor.flac
Track gain : 2.46 dB
Peak : 0.795898
CRC32 hash (test run) : 0046E322
CRC32 hash : 0046E322
CRC32 hash (skip zero) : 83551730
AccurateRip v1 signature : 7CC20309
AccurateRip v2 signature : 15ADB8C5
->Accurately ripped (v2, confidence 1/1)
Statistics
Read error : 0
Jitter error (maybe fixed) : 0
Retry sector count : 0
Damaged sector count : 0
No errors occurred
End of status report
-----BEGIN XLD SIGNATURE-----
5Jv4YsuMHjbFmDiPiiIhbS_N9Iy_rUHQz0yGihomYvbBtC9VMWieoCuUpC9u6jW6yM7dRT34Wb1s197_39JEhbNgVtye2CSIdX73eFO
-----END XLD SIGNATURE-----



Показать сообщения:    

Текущее время: 03-Дек 12:39

Часовой пояс: UTC + 3


Вы не можете начинать темы
Вы не можете отвечать на сообщения
Вы не можете редактировать свои сообщения
Вы не можете удалять свои сообщения
Вы не можете голосовать в опросах
Вы не можете прикреплять файлы к сообщениям
Вы не можете скачивать файлы