Аштанга-йога: Первая последовательность с Марком Дарби и Николь Бордело/Ashtanga Yoga: Primary Series with Mark Darby and Nicole Bordeleau [2003, аштанга-йога, DVD5, ENG] (Видеоурок)


Статистика раздачи [Обновить пиров]
Размер:  4.36 GB   |    Зарегистрирован:  10 месяцев 11 дней   |    Скачан:  0 раз

Полного источника не было: Никогда

Личеров:  9  [  0 KB/s  ]   Подробная статистика пиров
 
   
 
 
 

[Цитировать]

Аштанга-йога: Первая последовательность с Марком Дарби и Николь Бордело/ Ashtanga Yoga: Primary Series with Mark Darby and Nicole Bordeleau
Страна: Канада
Тематика: аштанга-йога
Тип раздаваемого материала: Видеоурок
Продолжительность: 130 минут
Год выпуска: 2003
Язык: Английский
Перевод: Отсутствует
Описание:
Марк Дарби – сертифицированный преподаватель аштанга-виньяса-йоги с огромным опытом личной практики, преподавания и глубоким знанием предмета. Этот диск не демонстрационный, а обучающий, в котором Марк дает подсказки и советы по выполнению асан первой последовательности аштанги.
Марк показывает основной вариантвыполнения первой последовательности, а его ученица Николь Бордельё – упрощенный вариант.
Марк Дарби практикует йогу более 30 лет. С 1979 года на протяжении четырех лет он занимался в Майсоре под руководством Шри Паттабхи Джойса, и получил из рук Гуруджи сертификат, дающий право преподавать оригинальный метод аштанги. Марк Дарби один из самых авторитетных преподавателей аштанги в мире. Преподает в Монреале.
Николь Бордело много лет училась под руководством Марка, а также проходила обучение у Ричарда Фримана и Дэвида Свенсона. Сейчас она преподает йогу в Монреале.
Содержание диска:
- Первая серия 90 минут
- Короткие формы 30 минут
- Короткая практика 10 минут
Содержит две звуковые дорожки: английскую и французскую
Бонусы:
- Принципы аштанги
- Подсказки
- Практика Марка Дарби
сайт Марка и Джоанны Дарби http://www.sattvayogashala.com/about%20us.html
Качество: DVD5
Формат: DVD video
Видео кодек: MPEG2
Аудио кодек: PCM

Mediainfo

General
Complete name : F:\seeding\rip\01_Дарби\VIDEO_TS\VTS_03_1.VOB
Format : MPEG-PS
File size : 1 024 MiB
Duration : 38mn 36s
Overall bit rate : 3 709 Kbps
Video
ID : 224 (0xE0)
Format : MPEG Video
Format version : Version 2
Format profile : Main@Main
Format settings, BVOP : Yes
Format settings, Matrix : Default
Format settings, GOP : M=3, N=15
Duration : 38mn 36s
Bit rate mode : Constant
Bit rate : 2 099 Kbps
Nominal bit rate : 3 003 Kbps
Width : 720 pixels
Height : 480 pixels
Display aspect ratio : 4:3
Frame rate : 29.970 fps
Standard : NTSC
Color space : YUV
Chroma subsampling : 4:2:0
Bit depth : 8 bits
Scan type : Interlaced
Scan order : Top Field First
Compression mode : Lossy
Bits/(Pixel*Frame) : 0.203
Stream size : 580 MiB (57%)
Audio
ID : 161 (0xA1)
Format : PCM
Format settings, Endianness : Big
Format settings, Sign : Signed
Muxing mode : DVD-Video
Duration : 38mn 35s
Bit rate mode : Constant
Bit rate : 1 536 Kbps
Channel(s) : 2 channels
Channel positions : Front: L R
Sampling rate : 48.0 KHz
Bit depth : 16 bits
Video delay : -67ms
Stream size : 424 MiB (41%)
[teatrix.ru].t14467.torrent 
Торрент: Зарегистрирован [ 2016-01-25 14:15 ] · 077C79C76A4F036C8C2F804D5FEF9865540E84A6

Скачать .torrent

Скачать

25 KB

Статус: проверено
Скачан: 0 раз
Размер: 4.36 GB
terms.php



Быстрый ответ

Имя:

      
Для отправки сообщений необходимо включить JavaScript
Показать сообщения:    

Текущее время: 05-Дек 21:39

Часовой пояс: UTC + 3


Вы можете начинать темы
Вы можете отвечать на сообщения
Вы не можете редактировать свои сообщения
Вы не можете удалять свои сообщения
Вы не можете голосовать в опросах
Вы не можете прикреплять файлы к сообщениям
Вы можете скачивать файлы