Хатха Йога - Обучающая программа (Шелиндер Неги / Shelender Negi) [2007 г., Йога, DVDRip, RUS/ENG] (Видеоурок)


Статистика раздачи [Обновить пиров]
Размер:  1.24 GB   |    Зарегистрирован:  10 месяцев 15 дней   |    Скачан:  0 раз

Полного источника не было: Никогда

Личеров:  13  [  0 KB/s  ]   Подробная статистика пиров
 
   
 
 
 

[Цитировать]

Шелиндер Неги / Shelender Negi
Хатха Йога - Обучающая программа
- Год выпуска: 2007
Страна: Украина, Днепропетровск
Жанр: фитнес
Продолжительность: 01:42:05
Язык: английский
Перевод: русский закадровый-Описание:
Хатха-йога включает в себя специально подобранный комплекс доступных и поразительно эффективных тренировочных методов (асан, сопровождаемых определенным дыханием, и пранаям). Разные упражнения укрепляют разные части тела и органы, уничтожают и предотвращают определенные болезни.-Шелиндер Неги родился в Гималаях в г. Ришикеш на берегу Ганги. Его род - один из самых древних в Индии. В возрасте 12 лет начал изучать йогу и философию веданты в знаменитой школе Шивананды Свами. 2000-2001г.г. - обучался в центре Парамай, получил государственный диплом специалиста в области йоги и натуропатии. С 18 лет преподает йогу. 2003-2004г.г. - изучал философию йоги в университете Гурукул Кангхри в Харидваре. 2005 г. - зарегистрировал собственный центр ведической йоги и массажа.
В настоящее время преподает йогу, обучает учителей йоги и проводит йога-терапию для людей, страдающих различными заболеваниями, проводит курсы по аюрведическому массажу. Благодаря серьезной практике йоги Шелиндер Неги уже в молодом возрасте достиг значительных успехов в жизни, а также развил целительные способности. В его центр в Гималаях приезжает множество людей со всего мира поправить здоровье, обучиться йоге.-По приглашению аюрведической клиники О. Г. Торсунова "Ассоль" молодой гуру приезжал на Украину в Днепропетровск и давал уроки йоги для всех.
...и целого месяца мало, чтобы насладиться общением с этим человеком... Шелиндер оказался для нас не только высококвалифицированным и внимательным учителем, но и житейским наставником, искренним другом. Он создал атмосферу любви, теплоты и дружбы в нашем большем йогическом коллективе, воспоминания о которой и по сей день согревают сердце. Он сплотил всех нас, сделав чуточку добрее и светлее, восприимчивее к проблемам окружающих людей.
Спасибо Шелиндеру за то, что он открыл для нас Мир Йоги, обучил нас ценным навыкам, которые способны приблизить человека к Высшему осознанию...
-Качество: DVDRip
Формат: AVI 1.0 (VFW 1.1)
Видеокодек: XviD build 50
Аудиокодек: MPEG Layer 3
Видео: XviD, 640 x 480, 4/3, 1 595 Kbps, 25.000 fps, 0.208 b/px
Аудио: MPEG-1 Audio layer 3, 128 Kbps, CBR, 48.0 KHz, 2 ch.

Скриншоты видео

-

Отчет MediaInfo

Complete name                    : \Shelender Negi - Хатха Йога.avi
Format                           : AVI
Format/Info                      : Audio Video Interleave
Format profile                   : OpenDML
File size                        : 1.24 GiB
Duration                         : 1h 42mn
Overall bit rate                 : 1 738 Kbps
Movie name                       : Shelender Negi - Хатха Йога
Writing application              : MEncoder SVN-r30881(20100311-gcc4.3.3)
Copyright                        : Olu6ka
Video
ID                               : 0
Format                           : MPEG-4 Visual
Format profile                   : Advanced Simple@L5
Format settings, BVOP            : Yes
Format settings, QPel            : No
Format settings, GMC             : No warppoints
Format settings, Matrix          : Default (H.263)
Codec ID                         : XVID
Codec ID/Hint                    : XviD
Duration                         : 1h 42mn
Bit rate                         : 1 595 Kbps
Width                            : 640 pixels
Height                           : 480 pixels
Display aspect ratio             : 4:3
Frame rate                       : 25.000 fps
Color space                      : YUV
Chroma subsampling               : 4:2:0
Bit depth                        : 8 bits
Scan type                        : Progressive
Bits/(Pixel*Frame)               : 0.208
Stream size                      : 1.14 GiB (92%)
Writing library                  : XviD 1.2.1 (UTC 2008-12-04)
Audio
ID                               : 1
Format                           : MPEG Audio
Format version                   : Version 1
Format profile                   : Layer 3
Mode                             : Joint stereo
Mode extension                   : MS Stereo
Codec ID                         : 55
Codec ID/Hint                    : MP3
Duration                         : 1mn 0s
Bit rate mode                    : Constant
Bit rate                         : 128 Kbps
Channel(s)                       : 2 channels
Sampling rate                    : 48.0 KHz
Video delay                      : 40ms
Stream size                      : 941 KiB (0%)
Alignment                        : Aligned on interleaves
Interleave, duration             : 2442 ms (61.06 video frames)
Interleave, preload duration     : 504 ms
[teatrix.ru].t14477.torrent 
Торрент: Зарегистрирован [ 2016-01-25 14:15 ] · 3E26ACB30B47197928E564896C9B321F7F6AF63E

Скачать .torrent

Скачать

13 KB

Статус: проверено
Скачан: 0 раз
Размер: 1.24 GB
terms.php



Быстрый ответ

Имя:

      
Для отправки сообщений необходимо включить JavaScript
Показать сообщения:    

Текущее время: 10-Дек 00:23

Часовой пояс: UTC + 3


Вы можете начинать темы
Вы можете отвечать на сообщения
Вы не можете редактировать свои сообщения
Вы не можете удалять свои сообщения
Вы не можете голосовать в опросах
Вы не можете прикреплять файлы к сообщениям
Вы можете скачивать файлы