Американский друг / Der amerikanische Freund (Вим Вендерс / Wim Wenders) [1977, Германия, Франция, криминальная драма, BDRemux 1080p] [Criterion Collection] MVO + Sub (Rus, Eng) + Original Eng


 

[Цитировать]

Американский друг / Der amerikanische Freund
Страна: Германия, Франция
Жанр: криминальная драма
Год выпуска: 1977
Продолжительность: 02:07:42
Перевод: Профессиональный (многоголосый закадровый) Кармен Видео
Cубтитры: русские, английские
Оригинальная аудиодорожка: английский-Режиссер: Вим Вендерс / Wim Wenders
В ролях: Деннис Хоппер, Бруно Ганц, Лиза Кройцер, Жерар Блен, Николас Рэй, Андреас Дедеке, Сэмюэл Фуллер, Петер Лилиенталь, Даниель Шмид, Жан Эсташ, Лу Кастель, Рудольф Шюндлер, Сэнди Уайтлоу, Энцо Робутти, Дэвид Блю, Вим Вендерс
Описание: По мотивам романа Патриции Хайсмит «Игра Рипли».
У Джонатана Циммермана, окантовщика, диагностирована лейкемия. Рипли, американский торговец произведениями искусства, занимающийся подделками, использует болезнь Циммермана, чтобы нанять его в качестве киллера. Циммерман соглашается, поскольку желает обеспечить свою семью на будущее. Вскоре его жизнь превращается в кошмар - он погружается в мир обмана и предательства.
IMDb || КиноПоиск-Тип релиза: BDRemux 1080p
Контейнер: MKV
Видео: MPEG-4 AVC Video, 1920x1080 at 23.976 fps, 28250 kbps
Аудио#1: Russian: 48 kHz, AC3, 2.0 ch, 192 kbps
Аудио#2: English: 48 kHz, DTS-HD MA, 5.1 ch, 3858 kbps (DTS Core: 48 kHz / 5.1 Ch / 1509 kbps / 24-bit)
Аудио#3: English: 48 kHz, AC3, 2.0 ch, 192 kbps |комментарии Вима Вендерса и Денниса Хоппера
Формат субтитров: softsub (SRT)
Сэмпл

MediaInfo

General
Unique ID : 239046749427408704334829159863793802017 (0xB3D6BAB24B8E0CB5AE1E757233E8DB21)
Complete name : Der amerikanische Freund.1977.Criterion.BDRemux. rutracker.mkv
Format : Matroska
Format version : Version 2
File size : 29.0 GiB
Duration : 2h 7mn
Overall bit rate mode : Variable
Overall bit rate : 32.5 Mbps
Movie name : Release for RuTracker
Writing application : mkvmerge v5.0.1 ('Es ist Sommer') built on Nov 6 2011 16:23:40
Writing library : libebml v1.2.2 + libmatroska v1.3.0
Video
ID : 1
Format : AVC
Format/Info : Advanced Video Codec
Format profile : High@L4.1
Format settings, CABAC : Yes
Format settings, ReFrames : 4 frames
Codec ID : V_MPEG4/ISO/AVC
Duration : 2h 7mn
Bit rate mode : Variable
Maximum bit rate : 37.0 Mbps
Width : 1 920 pixels
Height : 1 080 pixels
Display aspect ratio : 16:9
Frame rate mode : Constant
Frame rate : 23.976 fps
Color space : YUV
Chroma subsampling : 4:2:0
Bit depth : 8 bits
Scan type : Progressive
Title : Der amerikanische Freund.1977.Criterion.BDRemux. rutracker
Language : English
Default : Yes
Forced : No
Audio #1
ID : 2
Format : AC-3
Format/Info : Audio Coding 3
Mode extension : CM (complete main)
Format settings, Endianness : Big
Codec ID : A_AC3
Duration : 2h 7mn
Bit rate mode : Constant
Bit rate : 192 Kbps
Channel(s) : 2 channels
Channel positions : Front: L R
Sampling rate : 48.0 KHz
Bit depth : 16 bits
Compression mode : Lossy
Stream size : 175 MiB (1%)
Title : Кармен Видео
Language : Russian
Default : Yes
Forced : No
Audio #2
ID : 3
Format : DTS
Format/Info : Digital Theater Systems
Format profile : MA / Core
Mode : 16
Format settings, Endianness : Big
Codec ID : A_DTS
Duration : 2h 7mn
Bit rate mode : Variable
Bit rate : Unknown / 1 509 Kbps
Channel(s) : 6 channels
Channel positions : Front: L C R, Side: L R, LFE
Sampling rate : 48.0 KHz
Bit depth : 24 bits
Compression mode : Lossless / Lossy
Language : English
Default : No
Forced : No
Audio #3
ID : 4
Format : AC-3
Format/Info : Audio Coding 3
Mode extension : CM (complete main)
Format settings, Endianness : Big
Codec ID : A_AC3
Duration : 2h 7mn
Bit rate mode : Constant
Bit rate : 192 Kbps
Channel(s) : 2 channels
Channel positions : Front: L R
Sampling rate : 48.0 KHz
Bit depth : 16 bits
Compression mode : Lossy
Stream size : 175 MiB (1%)
Title : комментарии Вима Вендерса и Денниса Хоппера
Language : English
Default : No
Forced : No
Text #1
ID : 5
Format : UTF-8
Codec ID : S_TEXT/UTF8
Codec ID/Info : UTF-8 Plain Text
Language : Russian
Default : No
Forced : No
Text #2
ID : 6
Format : UTF-8
Codec ID : S_TEXT/UTF8
Codec ID/Info : UTF-8 Plain Text
Language : English
Default : No
Forced : No
Menu
00:00:00.000 : en:Cowboy in Hamburg
00:06:15.000 : en:Lot 132
00:12:59.737 : en:"I count you in"
00:21:46.805 : en:"Will he remember me?"
00:32:13.974 : en:Minot's Proposition
00:39:26.614 : en:No more time
00:51:01.892 : en:Paris by metro
01:01:05.370 : en:"I'm confused"
01:06:27.984 : en:One of those days
01:12:25.424 : en:A private arrangement
01:18:55.981 : en:Tools of the trade
01:22:11.885 : en:Ticket to ride
01:33:49.415 : en:A very nasty way
01:40:09.295 : en:"You bet your life"
01:47:03.208 : en:"I'm thinking about you all the time"
01:55:40.892 : en:A lot of trouble
01:59:55.814 : en:"I pity the poor immigrant"

Скриншоты




Показать сообщения:    

Текущее время: 07-Дек 13:39

Часовой пояс: UTC + 3


Вы не можете начинать темы
Вы не можете отвечать на сообщения
Вы не можете редактировать свои сообщения
Вы не можете удалять свои сообщения
Вы не можете голосовать в опросах
Вы не можете прикреплять файлы к сообщениям
Вы не можете скачивать файлы