(Classical) Glazunov / Debussy - The Sea (Глазунов, Дебюсси) (Евгений Светланов) - 1994, FLAC (image+.cue) lossless


 

[Цитировать]

The Sea - Glazunov / Debussy (Александр Глазунов, Клод Дебюсси) (Евгений Светланов)
Жанр: Classical
Страна-производитель диска: Россия
Год издания диска: 1994
Издатель (лейбл): Great Hall
Номер по каталогу: GHCD 94009
Дата записи: 13.02.1993
Аудиокодек: FLAC
Тип рипа: image+.cue
Битрейт аудио: lossless
Продолжительность: 00:44:42
Источник: собственный рип
Наличие сканов в содержимом раздачи: да
Треклист:
Alexander GLAZUNOV
1 The Sea - symphonic poem (fantasy), op.28 - 19:18
Claude DEBUSSY
The Sea (three symphonic sketches)
2 The sea from dawn to mid-day - 9:23
3 The play of fleeces - 6:32
4 The conversation of wind with sea (with applauses) - 9:13
Исполнители:
The State Symphony Orchestra
Conducted by Eugene Svetlanov
Recorded live at the Great Hall of the Moscow Conservatoire on february 13, 1993
Great Hall, 1994

Лог создания рипа

Exact Audio Copy V1.1 from 23. June 2015
Отчёт EAC об извлечении, выполненном 29. декабря 2015, 21:33
The Russian State Symphony Orchestra, E.Svetlanov / "The Sea" Symphonic Poems by Glasunov and Debussy
Дисковод: HL-DT-STDVDRAM GT32N Adapter: 1 ID: 0
Режим чтения : ДостоверностьИспользование точного потока : ДаОтключение кэша аудио : ДаИспользование указателей C2 : Нет
Коррекция смещения при чтении : 103Способность читать области Lead-in и Lead-out : НетЗаполнение пропущенных сэмплов тишиной : ДаУдаление блоков с тишиной в начале и конце : НетПри вычислениях CRC использовались нулевые сэмплы : ДаИнтерфейс : Встроенный Win32-интерфейс для Win NT/2000
Выходной формат : Пользовательский кодировщикВыбранный битрейт : 128 kBit/sКачество : ВысокийДобавление ID3-тега : НетУтилита сжатия : C:\Program Files (x86)\Exact Audio Copy\Flac\flac.exeДополнительные параметры : -V -8 -T "Date=%year%" -T "Genre=%genre%" %source%
TOC извлечённого CD
Трек | Старт | Длительность | Начальный сектор | Конечный сектор --------------------------------------------------------------------- 1 | 0:00.00 | 19:21.53 | 0 | 87127 2 | 19:21.53 | 9:26.50 | 87128 | 129627 3 | 28:48.28 | 6:39.30 | 129628 | 159582 4 | 35:27.58 | 9:15.27 | 159583 | 201234
Характеристики диапазона извлечения и сообщения об ошибках
Выбранный диапазон
Имя файла C:\Users\Elvis\Documents\The Russian State Symphony Orchestra, E.Svetlanov - ''The Sea'' Symphonic Poems by Glasunov and Debussy\The Russian State Symphony Orchestra, E.Svetlanov - ''The Sea'' Symphonic Poems by Glasunov and Debussy.wav
Пиковый уровень 77.9 % Скорость извлечения 2.0 X Качество диапазона 100.0 % CRC теста 62C80A83 CRC копии 62C80A83 Копирование... OK
Ошибок не произошло
AccurateRip: сводка
Трек 1 : извлечено точно (доверие 2) [A748074A] (AR v1)Трек 2 : извлечено точно (доверие 2) [84A2AE1C] (AR v1)Трек 3 : извлечено точно (доверие 2) [841853A7] (AR v1)Трек 4 : извлечено точно (доверие 2) [6240548F] (AR v1)
Все треки извлечены точно
Конец отчёта
==== Контрольная сумма отчёта F4CB7383D750B1558397943BE5C7FA7AF9E740E122480CE9F41F229D2C13DD3F ====

Содержание индексной карты (.CUE)

REM GENRE ClassicalREM DATE 1993REM DISCID 260A7B04REM COMMENT "ExactAudioCopy v1.1"PERFORMER "The Russian State Symphony Orchestra, E.Svetlanov"TITLE "'The Sea' Symphonic Poems by Glasunov and Debussy"FILE "The Russian State Symphony Orchestra, E.Svetlanov - ''The Sea'' Symphonic Poems by Glasunov and Debussy.flac" WAVE TRACK 01 AUDIO TITLE "A.Glasunov - 'The Sea'" PERFORMER "The Russian State Symphony Orchestra, E.Svetlanov" INDEX 01 00:00:00 TRACK 02 AUDIO TITLE "C.Debussy - 'The Sea': 01. The sea from dawn to mid-day" PERFORMER "The Russian State Symphony Orchestra, E.Svetlanov" INDEX 00 19:19:53 INDEX 01 19:21:53 TRACK 03 AUDIO TITLE "C.Debussy - 'The Sea': 02. The play of fleeces" PERFORMER "The Russian State Symphony Orchestra, E.Svetlanov" INDEX 00 28:46:28 INDEX 01 28:48:28 TRACK 04 AUDIO TITLE "C.Debussy - 'The Sea': 03. The conversation of wind with the sea" PERFORMER "The Russian State Symphony Orchestra, E.Svetlanov" INDEX 00 35:25:53 INDEX 01 35:27:58



Показать сообщения:    

Текущее время: 06-Дек 17:11

Часовой пояс: UTC + 3


Вы не можете начинать темы
Вы не можете отвечать на сообщения
Вы не можете редактировать свои сообщения
Вы не можете удалять свои сообщения
Вы не можете голосовать в опросах
Вы не можете прикреплять файлы к сообщениям
Вы не можете скачивать файлы