(Classical) Kalevi Aho - Works for Solo Piano - Sonja Fräki (Fraki) - 2014, FLAC (image+.cue) lossless


 

[Цитировать]

Kalevi Aho - Works for Solo Piano - Sonja Fräki
Жанр: Classical
Страна-производитель диска: Sweden
Год издания диска: 2014
Издатель (лейбл): BIS
Номер по каталогу: BIS-SCAD-2106
Дата записи: 2013
Аудиокодек: FLAC
Тип рипа: image+.cue
Битрейт аудио: lossless
Продолжительность: 73:22
Источник: собственный рип
Наличие сканов в содержимом раздачи: да
Треклист:
Kalevi Aho (b. 1949)
[1]-[19] Nineteen Preludes (1965–68)
[20]-[22] Three Small Piano Pieces (1971)
[23]-[24] Two Easy Piano Pieces for Children (1983)
[25]-[27] Sonatina for Piano (1993)
[28] Solo II (1985)
[29]-[31] Sonata for Piano (1980)
Исполнители:
Sonja Fräki piano

Лог создания рипа

Exact Audio Copy V1.0 beta 3 from 29. August 2011
EAC extraction logfile from 1. May 2015, 1:48
Sonja Fräki / Kalevi Aho - Piano Music
Used drive : HL-DT-STDVDRAM GU70N Adapter: 0 ID: 0
Read mode : SecureUtilize accurate stream : YesDefeat audio cache : YesMake use of C2 pointers : No
Read offset correction : 48Overread into Lead-In and Lead-Out : NoFill up missing offset samples with silence : YesDelete leading and trailing silent blocks : NoNull samples used in CRC calculations : YesUsed interface : Native Win32 interface for Win NT & 2000
Used output format : User Defined EncoderSelected bitrate : 128 kBit/sQuality : HighAdd ID3 tag : NoCommand line compressor : C:\Program Files (x86)\Exact Audio Copy\Flac\flac.exeAdditional command line options : -V -8 -T "Date=%year%" -T "Genre=%genre%" %source%
TOC of the extracted CD
Track | Start | Length | Start sector | End sector --------------------------------------------------------- 1 | 0:00.00 | 1:36.45 | 0 | 7244 2 | 1:36.45 | 0:28.15 | 7245 | 9359 3 | 2:04.60 | 1:43.63 | 9360 | 17147 4 | 3:48.48 | 2:19.26 | 17148 | 27598 5 | 6:07.74 | 2:13.51 | 27599 | 37624 6 | 8:21.50 | 1:33.15 | 37625 | 44614 7 | 9:54.65 | 2:04.39 | 44615 | 53953 8 | 11:59.29 | 1:16.03 | 53954 | 59656 9 | 13:15.32 | 2:11.08 | 59657 | 69489 10 | 15:26.40 | 1:22.05 | 69490 | 75644 11 | 16:48.45 | 0:55.60 | 75645 | 79829 12 | 17:44.30 | 2:03.32 | 79830 | 89086 13 | 19:47.62 | 1:33.61 | 89087 | 96122 14 | 21:21.48 | 1:57.61 | 96123 | 104958 15 | 23:19.34 | 1:40.11 | 104959 | 112469 16 | 24:59.45 | 2:03.35 | 112470 | 121729 17 | 27:03.05 | 3:09.21 | 121730 | 135925 18 | 30:12.26 | 2:56.44 | 135926 | 149169 19 | 33:08.70 | 1:54.21 | 149170 | 157740 20 | 35:03.16 | 2:10.52 | 157741 | 167542 21 | 37:13.68 | 1:10.59 | 167543 | 172851 22 | 38:24.52 | 0:39.67 | 172852 | 175843 23 | 39:04.44 | 1:30.00 | 175844 | 182593 24 | 40:34.44 | 0:46.41 | 182594 | 186084 25 | 41:21.10 | 1:38.52 | 186085 | 193486 26 | 42:59.62 | 2:48.37 | 193487 | 206123 27 | 45:48.24 | 1:59.66 | 206124 | 215114 28 | 47:48.15 | 10:57.29 | 215115 | 264418 29 | 58:45.44 | 3:20.01 | 264419 | 279419 30 | 62:05.45 | 3:19.26 | 279420 | 294370 31 | 65:24.71 | 7:57.44 | 294371 | 330189
Range status and errors
Selected range
Filename C:\temp\BIS-SACD-2106 - Aho - Works for Solo Piano - Fraki\Kalevi Aho - Piano Music.wav
Peak level 95.9 % Extraction speed 2.3 X Range quality 100.0 % Test CRC EE68DF91 Copy CRC EE68DF91 Copy OK
No errors occurred
AccurateRip summary
Track 1 not present in databaseTrack 2 not present in databaseTrack 3 not present in databaseTrack 4 not present in databaseTrack 5 not present in databaseTrack 6 not present in databaseTrack 7 not present in databaseTrack 8 not present in databaseTrack 9 not present in databaseTrack 10 not present in databaseTrack 11 not present in databaseTrack 12 not present in databaseTrack 13 not present in databaseTrack 14 not present in databaseTrack 15 not present in databaseTrack 16 not present in databaseTrack 17 not present in databaseTrack 18 not present in databaseTrack 19 not present in databaseTrack 20 not present in databaseTrack 21 not present in databaseTrack 22 not present in databaseTrack 23 not present in databaseTrack 24 not present in databaseTrack 25 not present in databaseTrack 26 not present in databaseTrack 27 not present in databaseTrack 28 not present in databaseTrack 29 not present in databaseTrack 30 not present in databaseTrack 31 not present in database
None of the tracks are present in the AccurateRip database
End of status report
==== Log checksum F2E832B133CCCB87149F6CC981C944F1E30E17768C037DB95A044E149A6FC941 ====



Показать сообщения:    

Текущее время: 07-Дек 21:18

Часовой пояс: UTC + 3


Вы не можете начинать темы
Вы не можете отвечать на сообщения
Вы не можете редактировать свои сообщения
Вы не можете удалять свои сообщения
Вы не можете голосовать в опросах
Вы не можете прикреплять файлы к сообщениям
Вы не можете скачивать файлы