[SACD-R][OF] Fritz Reiner, Chicago Symphony - Rimsky-Korsakov: Scheherazade / Римский-Корсаков: Шехеразада - 2014 (Orchestral)


Статистика раздачи [Обновить пиров]
Размер:  2.79 GB   |    Зарегистрирован:  10 месяцев 13 дней   |    Скачан:  1 раз

Полного источника не было: 23 дня

Личеров:  6  [  0 KB/s  ]   Подробная статистика пиров
 
   
 
 
 

[Цитировать]

Fritz Reiner, Chicago Symphony
Nicolai Rimsky-Korsakov: Scheherazade
- Формат записи/Источник записи: [SACD-R][OF]
Наличие водяных знаков: Нет
Год издания/переиздания диска: 2014
Жанр: Orchestral
Издатель(лейбл): RCA Living Stereo / Analogue Productions
Продолжительность: 00:44:24
Наличие сканов в содержимом раздачи: Нет-Треклист:
1] Movement 1
2] Movement 2
3] Movement 3
4] Movement 4-Контейнер: ISO (*.iso)
Тип рипа: image
Разрядность: 64(2,8 MHz/1 Bit)
Формат: DST64
Количество каналов: 5.0 (3.0), 2.0
Доп. информация: CAPC 2446 SA, Hybrid 3-Channel Stereo SACD
http://store.acousticsounds.com/d/91663/Fritz_Reine...nnel_Stereo_SACD
http://www.sa-cd.net/showtitle/8862

DR 11

foobar2000 1.3.8 / Замер динамического диапазона (DR) 1.1.1
Дата отчёта: 2016-01-25 22:07:01
--------------------------------------------------------------------------------
Анализ: Fritz Reiner / Chicago Symphony / Rimsky-Korsakov: Scheherazade
--------------------------------------------------------------------------------
DR Пики RMS Продолжительность трека
--------------------------------------------------------------------------------
DR5 -8.55 дБ -24.33 дБ 9:04 01-Movement 1
DR6 -8.18 дБ -26.52 дБ 11:37 02-Movement 2
DR8 -9.59 дБ -31.02 дБ 12:00 03-Movement 3
DR16 -6.25 дБ -24.65 дБ 11:43 04-Movement 4
--------------------------------------------------------------------------------
Количество треков: 4
Реальные значения DR: DR8
Частота: 2822400 Гц / Частота PCM: 88200 Гц
Каналов: 5
Разрядность: 24
Битрейт: 14112 кбит/с
Кодек: DST64
================================================================================
--------------------------------------------------------------------------------
Анализ: Fritz Reiner / Chicago Symphony / Rimsky-Korsakov: Scheherazade
--------------------------------------------------------------------------------
DR Пики RMS Продолжительность трека
--------------------------------------------------------------------------------
DR10 -4.61 дБ -19.56 дБ 9:04 01-Movement 1
DR11 -4.69 дБ -21.80 дБ 11:37 02-Movement 2
DR14 -6.28 дБ -26.18 дБ 12:00 03-Movement 3
DR11 -3.31 дБ -19.86 дБ 11:43 04-Movement 4
--------------------------------------------------------------------------------
Количество треков: 4
Реальные значения DR: DR11
Частота: 2822400 Гц / Частота PCM: 88200 Гц
Каналов: 2
Разрядность: 24
Битрейт: 5645 кбит/с
Кодек: DSD64
================================================================================
[teatrix.ru].t14565.torrent 
Торрент: Зарегистрирован [ 2016-01-26 02:40 ] · F19E0BC8D4F44A2C0F27B03D62CE31DF7E5D826F

Скачать .torrent

Скачать

29 KB

Статус: проверено
Скачан: 1 раз
Размер: 2.79 GB
terms.php



Быстрый ответ

Имя:

      
Для отправки сообщений необходимо включить JavaScript
Показать сообщения:    

Текущее время: 08-Дек 23:05

Часовой пояс: UTC + 3


Вы можете начинать темы
Вы можете отвечать на сообщения
Вы не можете редактировать свои сообщения
Вы не можете удалять свои сообщения
Вы не можете голосовать в опросах
Вы не можете прикреплять файлы к сообщениям
Вы можете скачивать файлы