(Soundtrack) Красота / Beautiful Thing - 1996, FLAC (tracks+.cue), lossless


Статистика раздачи [Обновить пиров]
Размер:  333 MB   |    Зарегистрирован:  10 месяцев 15 дней   |    Скачан:  1 раз

Полного источника не было: 20 дней

Личеров:  6  [  0 KB/s  ]   Подробная статистика пиров
 
   
 
 
 

[Цитировать]

Красота / Beautiful Thing-Жанр: Soundtrack
Год выпуска диска: 1996
Производитель диска: USA
Издатель (лейбл): MCA Records
Номер по каталогу: MCAD-11552-Аудиокодек: FLAC (*.flac)
Тип рипа: tracks+.cue
Битрейт аудио: lossless
Продолжительность: 37:03
Источник: what.cd / neimeyer
Наличие сканов в содержимом раздачи: да

Треклист

1. It's Getting Better (03:00)
Performed By Mama Cass
2. One Way Ticket (02:16)
Performed By Mama Cass
3. California Earthquake (03:24)
Performed By Mama Cass
4. Welcome To The World (02:18)
Performed By Mama Cass
5. Make Your Own Kind Of Music (02:23)
Performed By Mama Cass
6. Creeque Alley (03:46)
Performed By The Mamas And The Papas
7. Dream A Little Dream Of Me (03:12)
Performed By The Mamas And The Papas
8. Move In A Little Closer Baby (02:38)
Performed By Mama Cass
9. California Dreamin' (02:40)
Performed By The Mamas And The Papas
10. Monday Monday (03:24)
Performed By The Mamas And The Papas
11. I Saw Her Again Last Night (03:14)
Performed By The Mamas And The Papas
12. Words Of Love (02:15)
Performed By The Mamas And The Papas
13. Dedicated To The One I Love (02:59)
Performed By The Mamas And The Papas
14. Look Through My Window (03:34)
Performed By The Mamas And The Papas
15. Go Where You Wanna Go (02:27)
Performed By The Mamas And The Papas
16. Beatiful Thing Medley (08:00)
(Peppermint Foot Lotion; Beautiful Thing; The Gloucester; Don't Cry)

Лог создания рипа

Exact Audio Copy V1.0 beta 3 from 29. August 2011
EAC extraction logfile from 1. March 2012, 19:15
Various Artists / Beautiful Thing
Used drive : PLEXTOR CD-R PX-W1610A Adapter: 3 ID: 0
Read mode : SecureUtilize accurate stream : YesDefeat audio cache : YesMake use of C2 pointers : No
Read offset correction : 99Overread into Lead-In and Lead-Out : YesFill up missing offset samples with silence : YesDelete leading and trailing silent blocks : NoNull samples used in CRC calculations : YesUsed interface : Installed external ASPI interfaceGap handling : Appended to previous track
Used output format : User Defined EncoderSelected bitrate : 1024 kBit/sQuality : HighAdd ID3 tag : NoCommand line compressor : C:\Program Files (x86)\Exact Audio Copy\FLAC\FLAC.EXEAdditional command line options : -8 -V -T "ARTIST=%artist%" -T "TITLE=%title%" -T "ALBUM=%albumtitle%" -T "DATE=%year%" -T "TRACKNUMBER=%tracknr%" -T "GENRE=%genre%" -T "PERFORMER=%albuminterpret%" -T "COMPOSER=%composer%" %haslyrics%--tag-from-file=LYRICS="%lyricsfile%"%haslyrics% -T "ALBUMARTIST=%albumartist%" -T "DISCNUMBER=%cdnumber%" -T "TOTALDISCS=%totalcds%" -T "TOTALTRACKS=%numtracks%" -T "COMMENT=%comment%" %source% -o %dest%
TOC of the extracted CD
Track | Start | Length | Start sector | End sector --------------------------------------------------------- 1 | 0:00.00 | 2:59.05 | 0 | 13429 2 | 2:59.05 | 2:47.20 | 13430 | 25974 3 | 5:46.25 | 3:22.47 | 25975 | 41171 4 | 9:08.72 | 2:18.70 | 41172 | 51591 5 | 11:27.67 | 2:20.23 | 51592 | 62114 6 | 13:48.15 | 3:47.65 | 62115 | 79204 7 | 17:36.05 | 3:13.49 | 79205 | 93728 8 | 20:49.54 | 2:37.18 | 93729 | 105521 9 | 23:26.72 | 2:40.25 | 105522 | 117546 10 | 26:07.22 | 3:27.33 | 117547 | 133104 11 | 29:34.55 | 3:14.15 | 133105 | 147669 12 | 32:48.70 | 2:11.27 | 147670 | 157521 13 | 35:00.22 | 2:58.23 | 157522 | 170894 14 | 37:58.45 | 3:05.02 | 170895 | 184771 15 | 41:03.47 | 2:29.18 | 184772 | 195964 16 | 43:32.65 | 7:59.17 | 195965 | 231906
Track 1
Filename D:\Ripped Music\AAA Unchecked\Beautiful Thing\01 - Mama Cass - It's Getting Better.wav
Pre-gap length 0:00:02.00
Peak level 93.0 % Extraction speed 2.0 X Track quality 100.0 % Test CRC 297E20A4 Copy CRC 297E20A4 Accurately ripped (confidence 3) [2EAC2478] (AR v2) Copy OK
Track 2
Filename D:\Ripped Music\AAA Unchecked\Beautiful Thing\02 - Mama Cass - One Way Ticket.wav
Peak level 100.0 % Extraction speed 2.0 X Track quality 100.0 % Test CRC 9BE471B3 Copy CRC 9BE471B3 Accurately ripped (confidence 3) [D852246D] (AR v2) Copy OK
Track 3
Filename D:\Ripped Music\AAA Unchecked\Beautiful Thing\03 - Mama Cass - California Earthquake.wav
Peak level 100.0 % Extraction speed 2.0 X Track quality 100.0 % Test CRC 15A484EA Copy CRC 15A484EA Accurately ripped (confidence 3) [CB90A9B6] (AR v2) Copy OK
Track 4
Filename D:\Ripped Music\AAA Unchecked\Beautiful Thing\04 - Mama Cass - Welcome To The World.wav
Peak level 100.0 % Extraction speed 1.9 X Track quality 100.0 % Test CRC A3FD6304 Copy CRC A3FD6304 Accurately ripped (confidence 3) [B997F3F7] (AR v2) Copy OK
Track 5
Filename D:\Ripped Music\AAA Unchecked\Beautiful Thing\05 - Mama Cass - Make Your Own Kind Of Music.wav
Peak level 96.1 % Extraction speed 1.9 X Track quality 100.0 % Test CRC 1A6C8E80 Copy CRC 1A6C8E80 Accurately ripped (confidence 3) [E572A523] (AR v2) Copy OK
Track 6
Filename D:\Ripped Music\AAA Unchecked\Beautiful Thing\06 - The Mamas and the Papas - Creeque Alley.wav
Peak level 100.0 % Extraction speed 2.1 X Track quality 100.0 % Test CRC 4F01E68B Copy CRC 4F01E68B Accurately ripped (confidence 3) [9C1DD87B] (AR v2) Copy OK
Track 7
Filename D:\Ripped Music\AAA Unchecked\Beautiful Thing\07 - The Mamas and the Papas - Dream A Little Dream Of Me.wav
Peak level 90.4 % Extraction speed 2.1 X Track quality 100.0 % Test CRC 98E56DE5 Copy CRC 98E56DE5 Accurately ripped (confidence 3) [62BDD248] (AR v2) Copy OK
Track 8
Filename D:\Ripped Music\AAA Unchecked\Beautiful Thing\08 - Mama Cass - Move In A Little Closer Baby.wav
Peak level 93.2 % Extraction speed 2.0 X Track quality 100.0 % Test CRC ED1F2639 Copy CRC ED1F2639 Accurately ripped (confidence 3) [2DDCC163] (AR v2) Copy OK
Track 9
Filename D:\Ripped Music\AAA Unchecked\Beautiful Thing\09 - The Mamas and the Papas - California Dreamin'.wav
Peak level 100.0 % Extraction speed 1.6 X Track quality 99.9 % Test CRC B7ED24F1 Copy CRC B7ED24F1 Accurately ripped (confidence 2) [AF2DA733] (AR v2) Copy OK
Track 10
Filename D:\Ripped Music\AAA Unchecked\Beautiful Thing\10 - The Mamas and the Papas - Monday Monday.wav
Peak level 100.0 % Extraction speed 2.0 X Track quality 100.0 % Test CRC 468A6FD6 Copy CRC 468A6FD6 Accurately ripped (confidence 3) [AB11E065] (AR v2) Copy OK
Track 11
Filename D:\Ripped Music\AAA Unchecked\Beautiful Thing\11 - The Mamas and the Papas - I Saw Her Again Last Night.wav
Pre-gap length 0:00:01.23
Peak level 100.0 % Extraction speed 1.7 X Track quality 99.9 % Test CRC 774F3AD4 Copy CRC 774F3AD4 Accurately ripped (confidence 3) [1C837731] (AR v2) Copy OK
Track 12
Filename D:\Ripped Music\AAA Unchecked\Beautiful Thing\12 - The Mamas and the Papas - Words Of Love.wav
Peak level 100.0 % Extraction speed 1.9 X Track quality 100.0 % Test CRC E236D991 Copy CRC E236D991 Accurately ripped (confidence 3) [A93938E4] (AR v2) Copy OK
Track 13
Filename D:\Ripped Music\AAA Unchecked\Beautiful Thing\13 - The Mamas and the Papas - Dedicated To The One I Love.wav
Peak level 90.5 % Extraction speed 1.7 X Track quality 99.9 % Test CRC BF598B55 Copy CRC BF598B55 Accurately ripped (confidence 3) [BDD2F9F5] (AR v2) Copy OK
Track 14
Filename D:\Ripped Music\AAA Unchecked\Beautiful Thing\14 - The Mamas and the Papas - Look Through My Window.wav
Peak level 99.9 % Extraction speed 2.1 X Track quality 100.0 % Test CRC 6A803D3B Copy CRC 6A803D3B Accurately ripped (confidence 3) [25C0939C] (AR v2) Copy OK
Track 15
Filename D:\Ripped Music\AAA Unchecked\Beautiful Thing\15 - The Mamas and the Papas - Go Where You Wanna Go.wav
Peak level 100.0 % Extraction speed 2.0 X Track quality 100.0 % Test CRC 97863E57 Copy CRC 97863E57 Accurately ripped (confidence 3) [C8B65701] (AR v2) Copy OK
Track 16
Filename D:\Ripped Music\AAA Unchecked\Beautiful Thing\16 - Various Artists - Beautiful Thing Medley (Peppermint Foot Lotion, Beautiful Thing, The Gloucester, Don't Cry).wav
Pre-gap length 0:00:02.10
Peak level 97.0 % Extraction speed 1.3 X Track quality 99.8 % Test CRC 2FCD44CF Copy CRC 2FCD44CF Accurately ripped (confidence 14) [B7A47213] (AR v1) Copy OK
All tracks accurately ripped
No errors occurred
End of status report
---- CUETools DB Plugin V2.1.3
[CTDB TOCID: eT8u2vMWubHQJSGDHYIpOelQeOY-] disk not present in database, Submit result: eT8u2vMWubHQJSGDHYIpOelQeOY- has been uploaded
==== Log checksum 5BA2433492ED6494AA2B0775FA1C5A38F3D3B9EAC91E959F5F510B31BECA2AC8 ====

Содержание индексной карты (.CUE)

REM GENRE SoundtrackREM DATE 1996REM DISCID D50C1410REM COMMENT "ExactAudioCopy v1.0b3"PERFORMER "Various Artists"TITLE "Beautiful Thing"FILE "01 - Mama Cass - It's Getting Better.wav" WAVE TRACK 01 AUDIO TITLE "It's Getting Better" PERFORMER "Mama Cass" ISRC USMC16946395 INDEX 01 00:00:00FILE "02 - Mama Cass - One Way Ticket.wav" WAVE TRACK 02 AUDIO TITLE "One Way Ticket" PERFORMER "Mama Cass" ISRC USMC17050821 INDEX 01 00:00:00FILE "03 - Mama Cass - California Earthquake.wav" WAVE TRACK 03 AUDIO TITLE "California Earthquake" PERFORMER "Mama Cass" ISRC USMC16846394 INDEX 01 00:00:00FILE "04 - Mama Cass - Welcome To The World.wav" WAVE TRACK 04 AUDIO TITLE "Welcome To The World" PERFORMER "Mama Cass" ISRC USMC16950822 INDEX 01 00:00:00FILE "05 - Mama Cass - Make Your Own Kind Of Music.wav" WAVE TRACK 05 AUDIO TITLE "Make Your Own Kind Of Music" PERFORMER "Mama Cass" ISRC USMC16946396 INDEX 01 00:00:00FILE "06 - The Mamas and the Papas - Creeque Alley.wav" WAVE TRACK 06 AUDIO TITLE "Creeque Alley" PERFORMER "The Mamas and the Papas" ISRC USMC16746384 INDEX 01 00:00:00FILE "07 - The Mamas and the Papas - Dream A Little Dream Of Me.wav" WAVE TRACK 07 AUDIO TITLE "Dream A Little Dream Of Me" PERFORMER "The Mamas and the Papas" ISRC USMC16846393 INDEX 01 00:00:00FILE "08 - Mama Cass - Move In A Little Closer Baby.wav" WAVE TRACK 08 AUDIO TITLE "Move In A Little Closer Baby" PERFORMER "Mama Cass" ISRC USMC16950823 INDEX 01 00:00:00FILE "09 - The Mamas and the Papas - California Dreamin'.wav" WAVE TRACK 09 AUDIO TITLE "California Dreamin'" PERFORMER "The Mamas and the Papas" ISRC USMC16532697 INDEX 01 00:00:00FILE "10 - The Mamas and the Papas - Monday Monday.wav" WAVE TRACK 10 AUDIO TITLE "Monday Monday" PERFORMER "The Mamas and the Papas" ISRC USMC16546367 INDEX 01 00:00:00 TRACK 11 AUDIO TITLE "I Saw Her Again Last Night" PERFORMER "The Mamas and the Papas" ISRC USMC16646374 INDEX 00 03:26:10FILE "11 - The Mamas and the Papas - I Saw Her Again Last Night.wav" WAVE INDEX 01 00:00:00FILE "12 - The Mamas and the Papas - Words Of Love.wav" WAVE TRACK 12 AUDIO TITLE "Words Of Love" PERFORMER "The Mamas and the Papas" ISRC USMC16646376 INDEX 01 00:00:00FILE "13 - The Mamas and the Papas - Dedicated To The One I Love.wav" WAVE TRACK 13 AUDIO TITLE "Dedicated To The One I Love" PERFORMER "The Mamas and the Papas" ISRC USMC16746383 INDEX 01 00:00:00FILE "14 - The Mamas and the Papas - Look Through My Window.wav" WAVE TRACK 14 AUDIO TITLE "Look Through My Window" PERFORMER "The Mamas and the Papas" ISRC USMC16646375 INDEX 01 00:00:00FILE "15 - The Mamas and the Papas - Go Where You Wanna Go.wav" WAVE TRACK 15 AUDIO TITLE "Go Where You Wanna Go" PERFORMER "The Mamas and the Papas" ISRC USMC16646366 INDEX 01 00:00:00 TRACK 16 AUDIO TITLE "Beautiful Thing Medley" PERFORMER "Various Artists" INDEX 00 02:27:08FILE "16 - Various Artists - Beautiful Thing Medley.wav" WAVE INDEX 01 00:00:00 INDEX 02 02:53:07 INDEX 03 04:44:37 INDEX 04 06:37:02
[teatrix.ru].t14566.torrent 
Торрент: Зарегистрирован [ 2016-01-26 02:40 ] · E0A1DF06EB8BA75D9789B116148557D9A0AFF627

Скачать .torrent

Скачать

15 KB

Статус: проверено
Скачан: 1 раз
Размер: 333 MB
terms.php



Быстрый ответ

Имя:

      
Для отправки сообщений необходимо включить JavaScript
Показать сообщения:    

Текущее время: 10-Дек 23:32

Часовой пояс: UTC + 3


Вы можете начинать темы
Вы можете отвечать на сообщения
Вы не можете редактировать свои сообщения
Вы не можете удалять свои сообщения
Вы не можете голосовать в опросах
Вы не можете прикреплять файлы к сообщениям
Вы можете скачивать файлы