(Score) На самом дне океана / The Deep End Of The Ocean (by Elmer Bernstein) - 1999, FLAC (tracks+.cue), lossless


Статистика раздачи [Обновить пиров]
Размер:  185 MB   |    Зарегистрирован:  10 месяцев 11 дней   |    Скачан:  0 раз

Полного источника не было: Никогда

Личеров:  6  [  0 KB/s  ]   Подробная статистика пиров
 
   
 
 
 

[Цитировать]

На самом дне океана / The Deep End Of The Ocean-Жанр: Score
Композитор: Elmer Bernstein
Год выпуска диска: 1999
Производитель диска: Sonopress, Germany
Издатель (лейбл): Milan Records
Номер по каталогу: 74321 66520-2-Аудиокодек: FLAC (*.flac)
Тип рипа: tracks+.cue
Битрейт аудио: lossless
Продолжительность: 00:30:07
Источник: собственный рип
Наличие сканов в содержимом раздачи: да, 600 dpi-Ссылки: Кинопоиск | IMDB | Wikipedia | SoundtrackCollector

Треклист

01. Main Title [0:05:10.53]
02. Brothers [0:02:33.27]
03. Sam Is Lost [0:03:59.68]
04. Home Again [0:04:13.27]
05. Photographs [0:02:24.68]
06. Cecil [0:02:25.50]
07. Giving Back [0:03:05.27]
08. Reunion [0:03:06.10]
09. End Credits [0:03:08.30]

Лог создания рипа

Exact Audio Copy V1.1 from 23. June 2015
EAC extraction logfile from 24. January 2016, 14:01
Elmer Bernstein / The Deep End Of The Ocean
Used drive : PLEXTOR CD-R PX-230A Adapter: 1 ID: 0
Read mode : SecureUtilize accurate stream : YesDefeat audio cache : YesMake use of C2 pointers : No
Read offset correction : 738Overread into Lead-In and Lead-Out : NoFill up missing offset samples with silence : YesDelete leading and trailing silent blocks : NoNull samples used in CRC calculations : YesUsed interface : Native Win32 interface for Win NT & 2000Gap handling : Appended to previous track
Used output format : User Defined EncoderSelected bitrate : 1024 kBit/sQuality : HighAdd ID3 tag : NoCommand line compressor : C:\Program Files (x86)\Exact Audio Copy\FLAC\FLAC.EXEAdditional command line options : -6 -V -T "ARTIST=%artist%" -T "TITLE=%title%" -T "ALBUM=%albumtitle%" -T "DATE=%year%"-T "TRACKNUMBER=%tracknr%" -T "GENRE=%genre%" -T "COMMENT=%comment%" -T "ALBUMARTIST=%albuminterpret%" -T "COMPOSER=%composer%"-T "DISCNUMBER=%cdnumber%" -T "TOTALDISCS=%totalcds%" -T "TOTALTRACKS=%numtracks%" %source% -o %dest%
TOC of the extracted CD
Track | Start | Length | Start sector | End sector --------------------------------------------------------- 1 | 0:00.00 | 5:10.53 | 0 | 23302 2 | 5:10.53 | 2:33.27 | 23303 | 34804 3 | 7:44.05 | 3:59.68 | 34805 | 52797 4 | 11:43.73 | 4:13.27 | 52798 | 71799 5 | 15:57.25 | 2:24.68 | 71800 | 82667 6 | 18:22.18 | 2:25.50 | 82668 | 93592 7 | 20:47.68 | 3:05.27 | 93593 | 107494 8 | 23:53.20 | 3:06.10 | 107495 | 121454 9 | 26:59.30 | 3:08.30 | 121455 | 135584
Track 1
Filename C:\Music\01 - Elmer Bernstein - Main Title.wav
Pre-gap length 0:00:02.00
Peak level 98.8 % Extraction speed 4.8 X Track quality 100.0 % Test CRC 79DBFBBF Copy CRC 79DBFBBF Accurately ripped (confidence 3) [35E08AD4] (AR v2) Copy OK
Track 2
Filename C:\Music\02 - Elmer Bernstein - Brothers.wav
Peak level 94.7 % Extraction speed 3.0 X Track quality 99.9 % Test CRC 759C60D7 Copy CRC 759C60D7 Accurately ripped (confidence 3) [F601A8D9] (AR v2) Copy OK
Track 3
Filename C:\Music\03 - Elmer Bernstein - Sam Is Lost.wav
Peak level 95.4 % Extraction speed 4.1 X Track quality 100.0 % Test CRC BA5F5069 Copy CRC BA5F5069 Accurately ripped (confidence 3) [21B3A0E3] (AR v2) Copy OK
Track 4
Filename C:\Music\04 - Elmer Bernstein - Home Again.wav
Peak level 98.8 % Extraction speed 5.3 X Track quality 100.0 % Test CRC B54D96CE Copy CRC B54D96CE Accurately ripped (confidence 3) [129F1414] (AR v2) Copy OK
Track 5
Filename C:\Music\05 - Elmer Bernstein - Photographs.wav
Peak level 98.8 % Extraction speed 3.8 X Track quality 100.0 % Test CRC 40C7450A Copy CRC 40C7450A Accurately ripped (confidence 3) [1950017C] (AR v2) Copy OK
Track 6
Filename C:\Music\06 - Elmer Bernstein - Cecil.wav
Peak level 67.8 % Extraction speed 3.9 X Track quality 100.0 % Test CRC 6206C745 Copy CRC 6206C745 Accurately ripped (confidence 3) [6376457F] (AR v2) Copy OK
Track 7
Filename C:\Music\07 - Elmer Bernstein - Giving Back.wav
Peak level 81.8 % Extraction speed 3.8 X Track quality 100.0 % Test CRC 7041458C Copy CRC 7041458C Accurately ripped (confidence 3) [FAD06471] (AR v2) Copy OK
Track 8
Filename C:\Music\08 - Elmer Bernstein - Reunion.wav
Pre-gap length 0:00:01.25
Peak level 93.0 % Extraction speed 4.8 X Track quality 100.0 % Test CRC 34983FB1 Copy CRC 34983FB1 Accurately ripped (confidence 3) [23D43752] (AR v2) Copy OK
Track 9
Filename C:\Music\09 - Elmer Bernstein - End Credits.wav
Peak level 98.8 % Extraction speed 3.7 X Track quality 100.0 % Test CRC 02013BFE Copy CRC 02013BFE Accurately ripped (confidence 3) [44923EC8] (AR v2) Copy OK
All tracks accurately ripped
No errors occurred
End of status report
---- CUETools DB Plugin V2.1.6
[CTDB TOCID: J4I8PPLkJ0UjT06AeIze2efjhi4-] foundSubmit result: J4I8PPLkJ0UjT06AeIze2efjhi4- has been confirmedTrack | CTDB Status 1 | (5/5) Accurately ripped 2 | (5/5) Accurately ripped 3 | (5/5) Accurately ripped 4 | (5/5) Accurately ripped 5 | (5/5) Accurately ripped 6 | (5/5) Accurately ripped 7 | (5/5) Accurately ripped 8 | (5/5) Accurately ripped 9 | (5/5) Accurately ripped
==== Log checksum C7702D2158E1813AC67BB605B51354E031D39BEFE5E9B14CF33FD29AD7D6950F ====

Содержание индексной карты (.CUE)

REM GENRE SoundtrackREM DATE 1999REM DISCID 68070F09REM COMMENT "ExactAudioCopy v1.1"PERFORMER "Elmer Bernstein"TITLE "The Deep End Of The Ocean"FILE "01 - Elmer Bernstein - Main Title.wav" WAVE TRACK 01 AUDIO TITLE "Main Title" PERFORMER "Elmer Bernstein" INDEX 01 00:00:00FILE "02 - Elmer Bernstein - Brothers.wav" WAVE TRACK 02 AUDIO TITLE "Brothers" PERFORMER "Elmer Bernstein" INDEX 01 00:00:00FILE "03 - Elmer Bernstein - Sam Is Lost.wav" WAVE TRACK 03 AUDIO TITLE "Sam Is Lost" PERFORMER "Elmer Bernstein" INDEX 01 00:00:00FILE "04 - Elmer Bernstein - Home Again.wav" WAVE TRACK 04 AUDIO TITLE "Home Again" PERFORMER "Elmer Bernstein" INDEX 01 00:00:00FILE "05 - Elmer Bernstein - Photographs.wav" WAVE TRACK 05 AUDIO TITLE "Photographs" PERFORMER "Elmer Bernstein" INDEX 01 00:00:00FILE "06 - Elmer Bernstein - Cecil.wav" WAVE TRACK 06 AUDIO TITLE "Cecil" PERFORMER "Elmer Bernstein" INDEX 01 00:00:00FILE "07 - Elmer Bernstein - Giving Back.wav" WAVE TRACK 07 AUDIO TITLE "Giving Back" PERFORMER "Elmer Bernstein" INDEX 01 00:00:00 TRACK 08 AUDIO TITLE "Reunion" PERFORMER "Elmer Bernstein" INDEX 00 03:04:02FILE "08 - Elmer Bernstein - Reunion.wav" WAVE INDEX 01 00:00:00FILE "09 - Elmer Bernstein - End Credits.wav" WAVE TRACK 09 AUDIO TITLE "End Credits" PERFORMER "Elmer Bernstein" INDEX 01 00:00:00
[teatrix.ru].t14567.torrent 
Торрент: Зарегистрирован [ 2016-01-26 02:40 ] · 25246F049A265340107E68DB4FCB94966565B5D8

Скачать .torrent

Скачать

16 KB

Статус: проверено
Скачан: 0 раз
Размер: 185 MB
terms.php



Быстрый ответ

Имя:

      
Для отправки сообщений необходимо включить JavaScript
Показать сообщения:    

Текущее время: 06-Дек 22:56

Часовой пояс: UTC + 3


Вы можете начинать темы
Вы можете отвечать на сообщения
Вы не можете редактировать свои сообщения
Вы не можете удалять свои сообщения
Вы не можете голосовать в опросах
Вы не можете прикреплять файлы к сообщениям
Вы можете скачивать файлы