Астигматизм / Astigmatismo (Николай Трошинский / Nicolai Troshinsky) [2013, Испания, авторская анимация, WEBRip-AVC]


 

[Цитировать]

Астигматизм / Astigmatismo
Страна: Испания
Жанр: авторская анимация
Год выпуска: 2013
Продолжительность: 00:04:00
Перевод: не требуется
Cубтитры: нет
Режиссёр: Николай Трошинский / Nicolai Troshinsky
Описание: Лишившись очков, близорукий мальчик может видеть в фокусе одновременно только что-то одно. Он оказывается в размытом мире, среди необычных персонажей...
Доп. информация: 16 фестивальных наград
Качество видео: WEBRip-AVC
Формат видео: MP4
Видео: 1385 kbps, 1280х720 (16:9), 25.000 fps, AVC (High@L3.1)
Аудио: 192 kbps, 44.1 kHz, 2 channels, AAC (LC)

MediaInfo

General
Complete name : Astigmatismo (2013).mp4
Format : MPEG-4
Format profile : Base Media / Version 2
Codec ID : mp42
File size : 45.2 MiB
Duration : 4mn 0s
Overall bit rate mode : Variable
Overall bit rate : 1 579 Kbps
Encoded date : UTC 2014-02-25 17:05:01
Tagged date : UTC 2014-02-25 17:05:01
gsst : 0
gstd : 240070
gssd : B0AFCE1E3
gshh : r9---sn-4g57knek.googlevideo.com
Video
ID : 1
Format : AVC
Format/Info : Advanced Video Codec
Format profile : High@L3.1
Format settings, CABAC : Yes
Format settings, ReFrames : 1 frame
Codec ID : avc1
Codec ID/Info : Advanced Video Coding
Duration : 4mn 0s
Bit rate : 1 385 Kbps
Maximum bit rate : 3 446 Kbps
Width : 1 280 pixels
Height : 720 pixels
Display aspect ratio : 16:9
Frame rate mode : Constant
Frame rate : 25.000 fps
Color space : YUV
Chroma subsampling : 4:2:0
Bit depth : 8 bits
Scan type : Progressive
Bits/(Pixel*Frame) : 0.060
Stream size : 39.6 MiB (88%)
Tagged date : UTC 2014-02-25 17:05:03
Audio
ID : 2
Format : AAC
Format/Info : Advanced Audio Codec
Format profile : LC
Codec ID : 40
Duration : 4mn 0s
Bit rate mode : Variable
Bit rate : 192 Kbps
Maximum bit rate : 202 Kbps
Channel(s) : 2 channels
Channel positions : Front: L R
Sampling rate : 44.1 KHz
Compression mode : Lossy
Stream size : 5.49 MiB (12%)
Title : IsoMedia File Produced by Google, 5-11-2011
Encoded date : UTC 2014-02-25 17:05:02
Tagged date : UTC 2014-02-25 17:05:03

Скриншот c названием фильма

Скриншоты




Показать сообщения:    

Текущее время: 11-Дек 16:55

Часовой пояс: UTC + 3


Вы не можете начинать темы
Вы не можете отвечать на сообщения
Вы не можете редактировать свои сообщения
Вы не можете удалять свои сообщения
Вы не можете голосовать в опросах
Вы не можете прикреплять файлы к сообщениям
Вы не можете скачивать файлы