Отвага на каждый день / Kazdy den odvahu (Эвальд Шорм / Evald Schorm) [1964, Чехословакия, драма, DVDRip] DVO (Культура) + Sub (Cze) + Original (Cze)


Статистика раздачи [Обновить пиров]
Размер:  1.46 GB   |    Зарегистрирован:  10 месяцев 1 день   |    Скачан:  0 раз

Полного источника не было: Никогда

Личеров:  36  [  0 KB/s  ]   Подробная статистика пиров
 
   
 
 
 

[Цитировать]

Отвага на каждый день / Kazdy den odvahu
Страна: Чехословакия
Жанр: драма
Год выпуска: 1964
Продолжительность: 01:25:31
Перевод: Профессиональный (двухголосый закадровый) Культура
Cубтитры: чешские
Оригинальная аудиодорожка: чешский
Режиссер: Эвальд Шорм / Evald Schorm
В ролях: Яна Брейхова, Ян Качер, Йозеф Абргам, Властимил Бродский, Иржина Ираскова, Ольга Схеинпфлугова, Вацлав Трегл, Ян Либичек, Ян Цмирал, Йосеф Крамес, Иржи Мензель, Ольдржих Стодола, Нада Соботкова, Драго Цаславский, Франтишек Попп, Эмма Черна, Павел Пав, Ярослав Томса, Франтишек Лоринг, Ян Поцепицкий, Яна Цундерлова, Милош Кохут, Франтишек Синделар
Описание: Глубокий психологический анализ одного из представителей поколения молодых энергичных функционеров начала 60-х гг. Рабочий Ярда чувствует себя обманутым: он недоволен тем, куда движется общество.
Доп. информация:
Качество видео: DVDRip | therthe/DVD5
Формат видео: AVI
Видео: 704x528 (1.33:1), 25 fps, XviD build 73 ~2010 kbps avg, 0.22 bit/pixel
Аудио 1: 48 kHz, AC3 Dolby Digital, 2/0 (L,R) ch, ~192 kbps двухголосый
Аудио 2: 48 kHz, AC3 Dolby Digital, 2/0 (L,R) ch, ~224 kbps оригинал
Формат субтитров: softsub (SRT)

MediaInfo

General
Complete name : C:\Users\User\Desktop\Kazdy.den.odvahu.1964.DVDRip.DVO.Cze.Sub_by_LBS\Kazdy.den.odvahu.1964.DVDRip.DVO.Cze_by_LBS.avi
Format : AVI
Format/Info : Audio Video Interleave
File size : 1.46 GiB
Duration : 1h 25mn
Overall bit rate : 2 442 Kbps
Director : Last Boy Scout
Writing application : VirtualDubMod 1.5.10.3 | www.virtualdub-fr.org || (build 2550/release)
Copyright :
Comment : DVDRip DVO (Культура) + Original (Cze)
Video
ID : 0
Format : MPEG-4 Visual
Format profile : Advanced Simple@L5
Format settings, BVOP : 1
Format settings, QPel : No
Format settings, GMC : No warppoints
Format settings, Matrix : Custom
Codec ID : XVID
Codec ID/Hint : XviD
Duration : 1h 25mn
Bit rate : 2 012 Kbps
Width : 704 pixels
Height : 528 pixels
Display aspect ratio : 4:3
Frame rate : 25.000 fps
Color space : YUV
Chroma subsampling : 4:2:0
Bit depth : 8 bits
Scan type : Progressive
Compression mode : Lossy
Bits/(Pixel*Frame) : 0.216
Stream size : 1.20 GiB (82%)
Writing library : XviD 73
Audio #1
ID : 1
Format : AC-3
Format/Info : Audio Coding 3
Mode extension : CM (complete main)
Format settings, Endianness : Big
Codec ID : 2000
Duration : 1h 25mn
Bit rate mode : Constant
Bit rate : 192 Kbps
Channel(s) : 2 channels
Channel positions : Front: L R
Sampling rate : 48.0 KHz
Bit depth : 16 bits
Compression mode : Lossy
Stream size : 117 MiB (8%)
Alignment : Split accross interleaves
Interleave, duration : 40 ms (1.00 video frame)
Interleave, preload duration : 500 ms
Audio #2
ID : 2
Format : AC-3
Format/Info : Audio Coding 3
Mode extension : CM (complete main)
Format settings, Endianness : Big
Codec ID : 2000
Duration : 1h 25mn
Bit rate mode : Constant
Bit rate : 224 Kbps
Channel(s) : 2 channels
Channel positions : Front: L R
Sampling rate : 48.0 KHz
Bit depth : 16 bits
Compression mode : Lossy
Stream size : 137 MiB (9%)
Alignment : Split accross interleaves
Interleave, duration : 40 ms (1.00 video frame)
Interleave, preload duration : 500 ms

Скриншоты

[teatrix.ru].t14589.torrent 
Торрент: Зарегистрирован [ 2016-02-09 12:50 ] · 2455A565CB7B167663D2975514493986C13DB8F1

Скачать .torrent

Скачать

15 KB

Статус: проверено
Скачан: 0 раз
Размер: 1.46 GB
terms.php



Быстрый ответ

Имя:

      
Для отправки сообщений необходимо включить JavaScript
Показать сообщения:    

Текущее время: 11-Дек 07:15

Часовой пояс: UTC + 3


Вы можете начинать темы
Вы можете отвечать на сообщения
Вы не можете редактировать свои сообщения
Вы не можете удалять свои сообщения
Вы не можете голосовать в опросах
Вы не можете прикреплять файлы к сообщениям
Вы можете скачивать файлы