Женщина Жиля / Жена Жиля / La femme de Gilles (Фредерик Фонтейн / Frédéric Fonteyne) [2004, Бельгия, Франция, Люксембург, Италия, Швейцария, драма, артхаус, DVDRip] VO + Original Fre


Статистика раздачи [Обновить пиров]
Размер:  1.46 GB   |    Зарегистрирован:  9 месяцев 23 дня   |    Скачан:  0 раз

Полного источника не было: Никогда

 
   
 
 
 

[Цитировать]

Жена Жиля / La femme de Gilles
Страна: Бельгия, Франция, Люксембург, Италия, Швейцария
Жанр: драма, артхаус
Год выпуска: 2004
Продолжительность: 01:48:09
Перевод: Одноголосый закадровый
Оригинальная аудиодорожка: французский
Cубтитры: нет
Режиссер: Фредерик Фонтейн / Frédéric Fonteyne
В ролях: Эммануэль Дево, Кловис Корнийяк, Лаура Смет, Колетт Эммануэль, Жиль Лягей, Алис Верлинден, Хлоя Верлинден, Йоанн Бланк, Филипп Жозетт, Бенжамин Рамон-Описание: Элиза замужем за Жилем, которого любит без памяти. Он — ее единственный мужчина, тот мужчина чьего возращения она ждет каждый день, тот ради кого она делает работу по дому, воспитывает детей, тот, от кого она опять ждет ребенка. Когда Элиза понимает, что ее Жиль любит другую, ей не остается ничего другого, как молчать, страдать, надеяться и верить… до тех пор пока это не закончится.-Награды:

скрытый текст

Венецианский кинофестиваль, 2004 год
Победитель (1):
Приз Европейской конфедерации художественного кино
-Сэмпл: http://multi-up.com/1088169
Качество видео: DVDRip
Формат видео: AVI
Видео: 704x384 (1.83:1), 23.976 fps, XviD build 65 ~1596 kbps avg, 0.25 bit/pixel
Аудио: 48 kHz, AC3 Dolby Digital, 2/0 (L,R) ch, ~128 kbps Rus
Аудио 2: 48 kHz, AC3 Dolby Digital, 2/0 (L,R) ch, ~192 kbps Fra

MediaInfo

Общее
Полное имя : D:\La femme de Gilles (Frédéric Fonteyne, 2004) DVDRip (Rus, Fra).avi
Формат : AVI
Формат/Информация : Audio Video Interleave
Размер файла : 1,46 Гбайт
Продолжительность : 1 ч. 48 м.
Общий поток : 1931 Кбит/сек
Название фильма : La femme de Gilles (Frederic Fonteyne, 2004) DVDRip (Rus, Fra)
Режиссёр : Maksmet
Программа кодирования : VirtualDubModRus 1.5.10.2 (build 2542/release)
Формат оригинала/Имя : Movie
Примечание : 07.02.2016
Видео
Идентификатор : 0
Формат : MPEG-4 Visual
Профиль формата : Advanced Simple@L5
Параметр BVOP формата : 1
Параметр QPel формата : Нет
Параметр GMC формата : Без точки перехода
Параметр матрицы формата : Выборочная
Идентификатор кодека : XVID
Идентификатор кодека/Подсказка : XviD
Продолжительность : 1 ч. 48 м.
Битрейт : 1597 Кбит/сек
Ширина : 704 пикселя
Высота : 384 пикселя
Соотношение сторон : 1,85:1
Частота кадров : 23,976 кадра/сек
Цветовое пространство : YUV
Субдискретизация насыщенности : 4:2:0
Битовая глубина : 8 бит
Тип развёртки : Прогрессивная
Метод сжатия : С потерями
Бит/(Пиксели*Кадры) : 0.246
Размер потока : 1,21 Гбайт (83%)
Библиотека кодирования : XviD 65
Аудио #1
Идентификатор : 1
Формат : AC-3
Формат/Информация : Audio Coding 3
Расширение режима : CM (complete main)
Параметр Endianness формата : Big
Идентификатор кодека : 2000
Продолжительность : 1 ч. 48 м.
Вид битрейта : Постоянный
Битрейт : 128 Кбит/сек
Каналы : 2 канала
Расположение каналов : Front: L R
Частота : 48,0 КГц
Метод сжатия : С потерями
Задержка видео : 1 с. 600 мс.
Размер потока : 98,9 Мбайт (7%)
Выравнивание : Разделение по промежуткам
Продолжительность промежутка : 42 мс. (1,00 видеокадр)
Время предзагрузки промежутка : 500 мс.
Аудио #2
Идентификатор : 2
Формат : AC-3
Формат/Информация : Audio Coding 3
Расширение режима : CM (complete main)
Параметр Endianness формата : Big
Идентификатор кодека : 2000
Продолжительность : 1 ч. 48 м.
Вид битрейта : Постоянный
Битрейт : 192 Кбит/сек
Каналы : 2 канала
Расположение каналов : Front: L R
Частота : 48,0 КГц
Метод сжатия : С потерями
Размер потока : 148 Мбайт (10%)
Выравнивание : Разделение по промежуткам
Продолжительность промежутка : 42 мс. (1,00 видеокадр)
Время предзагрузки промежутка : 500 мс.

Скриншоты

[teatrix.ru].t14591.torrent 
Торрент: Зарегистрирован [ 2016-02-09 12:50 ] · 5187565B00111E0950C89AB1B1F4D1CE473FE455

Скачать .torrent

Скачать

15 KB

Статус: проверено
Скачан: 0 раз
Размер: 1.46 GB
terms.php



Быстрый ответ

Имя:

      
Для отправки сообщений необходимо включить JavaScript
Показать сообщения:    

Текущее время: 03-Дек 18:42

Часовой пояс: UTC + 3


Вы можете начинать темы
Вы можете отвечать на сообщения
Вы не можете редактировать свои сообщения
Вы не можете удалять свои сообщения
Вы не можете голосовать в опросах
Вы не можете прикреплять файлы к сообщениям
Вы можете скачивать файлы