Отдых на грани нервного срыва / Ni a vendre ni a louer / Holidays by the Sea (Паскаль Рабатэ / Pascal Rabate) [2011, Франция, комедия, DVDRip] Original Fre


Статистика раздачи [Обновить пиров]
Размер:  698 MB   |    Зарегистрирован:  9 месяцев 28 дней   |    Скачан:  0 раз

Полного источника не было: Никогда

Личеров:  31  [  0 KB/s  ]   Подробная статистика пиров
 
   
 
 
 

[Цитировать]

Отдых на грани нервного срыва / Ni à vendre ni à louer Страна: Франция
Жанр: комедия
Год выпуска: 2011
Продолжительность: 01:12:50
Перевод: Не требуется
Cубтитры: нет
Оригинальная аудиодорожка: без разговорной речи
Режиссер: Паскаль Рабатэ / Pascal Rabaté
В ролях: Катрин Осмален, Шарль Шнайдер, Густав Керверн, Венсан Мартин, Мари Кремер, Жак Гамблен, Арсен Моска, Доминик Пиньон, Мария де Медейруш, Франсуа Дамиенс, Шанталь Нойвирт, Франсуа Морель.
Описание: Французы выдвигаются на побережье. Горожане и влюбленные панки, пенсионеры, супружеские пары, тайные любовники, семья скаутов и даже состоятельный садомазохист намерены получить заслуженный отдых и немного развлечься в палатке, в номере безымянного отеля, в автотрейлере, домике размером с собачью конуру. Они все едут на море - на машине для гольфа, в электричке или в спортивных автомобилях с открытым верхом. Их случайные и спланированные встречи, измены, влюбленности, семейная рутина и другие курортные приключения превратятся в фейерверк.

Доп. информация: Фильм заимствован из раздачи Moener с

Качество видео: DVDRip
Формат видео: AVI
Видео: 640x272 (2.35:1), 25 fps, XviD build 46 ~1201 kbps avg, 0.28 bit/pixel
Аудио: 48 kHz, MPEG Layer 3, 2 ch, ~128.00 kbps avg

MediaInfo

General
Complete name : D:\Public\Ni.A.Vendre.Ni.A.Louer.2011.DVDRip.XviD.avi
Format : AVI
Format/Info : Audio Video Interleave
File size : 698 MiB
Duration : 1h 12mn
Overall bit rate : 1 339 Kbps
Writing application : VirtualDubMod 1.5.10.2 (build 2540/release)
Writing library : VirtualDubMod build 2540/release
Video
ID : 0
Format : MPEG-4 Visual
Format profile : Advanced Simple@L5
Format settings, BVOP : 2
Format settings, QPel : No
Format settings, GMC : No warppoints
Format settings, Matrix : Default (H.263)
Codec ID : XVID
Codec ID/Hint : XviD
Duration : 1h 12mn
Bit rate : 1 202 Kbps
Width : 640 pixels
Height : 272 pixels
Display aspect ratio : 2.35:1
Frame rate : 25.000 fps
Color space : YUV
Chroma subsampling : 4:2:0
Bit depth : 8 bits
Scan type : Progressive
Compression mode : Lossy
Bits/(Pixel*Frame) : 0.276
Stream size : 626 MiB (90%)
Writing library : XviD 1.1.2 (UTC 2006-11-01)
Audio
ID : 1
Format : MPEG Audio
Format version : Version 1
Format profile : Layer 3
Codec ID : 55
Codec ID/Hint : MP3
Duration : 1h 12mn
Bit rate mode : Constant
Bit rate : 128 Kbps
Channel(s) : 2 channels
Sampling rate : 48.0 KHz
Compression mode : Lossy
Stream size : 66.7 MiB (10%)
Alignment : Aligned on interleaves
Interleave, duration : 40 ms (1.00 video frame)
Interleave, preload duration : 504 ms
Writing library : LAME3.98r
Encoding settings : -m s -V 4 -q 2 -lowpass 17 -b 128

Скриншот c названием фильма

Скриншоты

[teatrix.ru].t14592.torrent 
Торрент: Зарегистрирован [ 2016-02-09 12:50 ] · 57CEC1DC65C9D882D0EFBEADF5B61D0DE64DE458

Скачать .torrent

Скачать

14 KB

Статус: проверено
Скачан: 0 раз
Размер: 698 MB
terms.php



Быстрый ответ

Имя:

      
Для отправки сообщений необходимо включить JavaScript
Показать сообщения:    

Текущее время: 08-Дек 12:56

Часовой пояс: UTC + 3


Вы можете начинать темы
Вы можете отвечать на сообщения
Вы не можете редактировать свои сообщения
Вы не можете удалять свои сообщения
Вы не можете голосовать в опросах
Вы не можете прикреплять файлы к сообщениям
Вы можете скачивать файлы