Министр / Управление государством / L'exercice de l'Etat / The Minister (Пьер Шоллер / Pierre Schoeller) [2011, Франция, Бельгия, драма, DVB] Original (Fre) + Sub (Rus, Eng, Fre)


Статистика раздачи [Обновить пиров]
Размер:  2.71 GB   |    Зарегистрирован:  9 месяцев 26 дней   |    Скачан:  1 раз

Полного источника не было: 19 дней

 
   
 
 
 

[Цитировать]

Министр
L'exercice de l'État- Страна: Франция, Бельгия
Жанр: драма
Год выпуска: 2011
Продолжительность: 01:47:34Перевод: Субтитры (перевод М.Кузиной, Éclair Group)
Cубтитры: русские, английские, французские, нидерландские, румынские
Оригинальная аудиодорожка: французский
Режиссер: Пьер Шоллер / Pierre Schoeller
В ролях: Оливье Гурме / Olivier Gourmet (Bertrand Saint-Jean), Мишель Блан / Michel Blanc (Gilles), Забу Брайтман / Zabou Breitman (Pauline), Лоран Стокер / Laurent Stocker (Yan), Сильвен Дебле / Sylvain Deblé (Martin Kuypers), Дидье Безак / Didier Bezace (Dominique Woessner), Жак Буде / Jacques Boudet (Le sénateur Juillet)
Описание: Взрослые игры настоящих мужчин - это борьба за власть... Министр транспорта Бертран Сен-Жан разбужен ночью известием об автомобильной аварии – пассажирский автобус, в котором ехали дети и их родители, упал с заснеженного обрыва... Борьба за власть, сферы влияния, экономический кризис… Всё состоит из конфликтов – один разрушительнее другого. На какие жертвы готовы люди ради достижения своих целей? Как далеко они согласны зайти во всепожирающей страсти политического успеха?
Доп. информация: Hot Bird (13.0°E) TV5MONDE Europe DVB-S
Награды: приз ФИПРЕССИ Cannes Film Festival 2011 + номинация на премию лучшему режиссеру в программе "Особый взгляд"; 3 "Сезара" 2012 (лучший оригинальный сценарий, лучший актер второго плана - Michel Blanc, звук) + 8 номинаций; приз French Syndicate of Cinema Critics 2012 за лучший фильм; 3 премии Magritte Awards (Belgium) 2013 (лучший актер - Olivier Gourmet, лучший иностранный фильм, музыка); др. награды.

Качество видео: DVB
Формат видео: TS
Видео: MPEG Video 2, 720x576@1024x576 (16:9), 25 fps, ~3229 kbps avg, 0.311 bit/pixel
Аудио: MPEG Audio 2, 2 ch, 48 kHz, 192 kbps - французский
Формат субтитров: PGS

MediaInfo

ОбщееИдентификатор : 1 (0x1)Полное имя : [apreder]L'exercice_de_l'Etat(2011)DVB.tsФормат : MPEG-TSРазмер файла : 2,71 ГбайтПродолжительность : 1 ч. 47 м.Режим общего битрейта : ПеременныйОбщий поток : 3600 Кбит/секМаксимальный общий битрейт : 35,5 Мбит/сек
ВидеоИдентификатор : 4113 (0x1011)Идентификатор меню : 1 (0x1)Формат : MPEG VideoВерсия формата : Version 2Профиль формата : Main@MainПараметр BVOP формата : ДаПараметр матрицы формата : ВыборочнаяПараметр GOP формата : VariableFormat_Settings_PictureStructure : FrameИдентификатор кодека : 2Продолжительность : 1 ч. 47 м.Вид битрейта : ПеременныйБитрейт : 3229 Кбит/секШирина : 720 пикселейВысота : 576 пикселейСоотношение сторон : 16:9Частота кадров : 25,000 кадров/секСтандарт вещания : PALЦветовое пространство : YUVСубдискретизация насыщенности : 4:2:0Битовая глубина : 8 битТип развёртки : ЧересстрочнаяПорядок развёртки : Верхнее поле первоеМетод сжатия : С потерямиБит/(Пиксели*Кадры) : 0.311Временной код первого кадра : 00:00:00:00Оригинал временного кода : Group of pictures headerРазмер потока : 2,43 Гбайт (90%)
АудиоИдентификатор : 4352 (0x1100)Идентификатор меню : 1 (0x1)Формат : MPEG AudioВерсия формата : Version 1Профиль формата : Layer 2Идентификатор кодека : 4Продолжительность : 1 ч. 47 м.Вид битрейта : ПостоянныйБитрейт : 192 Кбит/секКаналы : 2 каналаЧастота : 48,0 КГцМетод сжатия : С потерямиРазмер потока : 148 Мбайт (5%)Язык : French
Текст #1Идентификатор : 4608 (0x1200)Идентификатор меню : 1 (0x1)Формат : PGSИдентификатор кодека : 144Язык : Russian
Текст #2Идентификатор : 4609 (0x1201)Идентификатор меню : 1 (0x1)Формат : PGSИдентификатор кодека : 144Продолжительность : 1 ч. 47 м.Задержка видео : 29 с.Язык : English
Текст #3Идентификатор : 4610 (0x1202)Идентификатор меню : 1 (0x1)Формат : PGSИдентификатор кодека : 144Язык : French
Текст #4Идентификатор : 4611 (0x1203)Идентификатор меню : 1 (0x1)Формат : PGSИдентификатор кодека : 144Язык : Dutch
Текст #5Идентификатор : 4612 (0x1204)Идентификатор меню : 1 (0x1)Формат : PGSИдентификатор кодека : 144Язык : Romanian

Скриншот c названием фильма

Скриншоты


Резервные скриншоты


[teatrix.ru].t14593.torrent 
Торрент: Зарегистрирован [ 2016-02-09 12:50 ] · 5BDBB9C0BCDB68C2438ED8D7E95974102DA6E0D3

Скачать .torrent

Скачать

14 KB

Статус: проверено
Скачан: 1 раз
Размер: 2.71 GB
terms.php



Быстрый ответ

Имя:

      
Для отправки сообщений необходимо включить JavaScript
Показать сообщения:    

Текущее время: 06-Дек 13:15

Часовой пояс: UTC + 3


Вы можете начинать темы
Вы можете отвечать на сообщения
Вы не можете редактировать свои сообщения
Вы не можете удалять свои сообщения
Вы не можете голосовать в опросах
Вы не можете прикреплять файлы к сообщениям
Вы можете скачивать файлы