Последнее дело пирата / Last Hijack (Фемке Уолтинг / Femke Wolting, Томми Паллота / Tommy Pallotta) [2014, Нидерланды, Ирландия, Германия, Бельгия, документальный, анимация, DVB] DVO (SDI Media)


Статистика раздачи [Обновить пиров]
Размер:  1.12 GB   |    Зарегистрирован:  10 месяцев 1 день   |    Скачан:  0 раз

Полного источника не было: Никогда

Личеров:  44  [  0 KB/s  ]   Подробная статистика пиров
 
   
 
 
 

[Цитировать]

Последнее дело пирата
Last Hijack- Страна: Нидерланды, Ирландия, Германия, Бельгия
Жанр: документальный, анимация
Год выпуска: 2014
Продолжительность: 01:18:26Перевод: Профессиональный (двухголосый закадровый) Студия "SDI Media" по заказу телеканала "24 ДОК"
Cубтитры: нет
Режиссер: Фемке Уолтинг / Femke Wolting, Томми Паллота / Tommy Pallotta
В ролях: Мохамед / Mohamed
Описание: Фильм рассказывает о Мухамеде, сомалийском пирате, который решается на последний опасный рейд за добычей, которая обеспечит его необходимыми средствами для свадьбы и счастливой семейной жизни. (анонс канала "24 ДОК")
Доп. информация: "24 ДОК" Eutelsat 36B (W7) DVB-S
Награды: международная премия "Эмми" 2015 за лучшую интерактивную продукцию; номинация на премию "Кристалл" за лучший полнометражный фильм Annecy International Animated Film Festival 2014; номинация на приз за инновации в документальном кино Sheffield International Documentary Festival 2014; др. награды. Участник секции "Панорама" Berlin Film Festival 2014.

Качество видео: DVB
Формат видео: MKV
Видео: MPEG Video 2, 720x576@768x576 (4:3), 25 fps, ~1820 kbps avg, 0.175 bit/pixel
Аудио: MPEG Audio 2, 2 ch, 48 kHz, 192 kbps

MediaInfo

ОбщееУникальный идентификатор : 229521890350678074960854623608799100525 (0xACAC4EE30A8ABDF49E425A351261FE6D)Полное имя : [apreder]Last_Hijack(2014)DVB.mkvФормат : MatroskaВерсия формата : Version 2Размер файла : 1,12 ГбайтПродолжительность : 1 ч. 18 м.Режим общего битрейта : ПеременныйОбщий поток : 2052 Кбит/секНазвание фильма : Last HijackДата выпуска : 2014-04-24Дата кодирования : UTC 2016-02-06 09:56:30Программа кодирования : mkvmerge v8.8.0 ('Wind at my back') 64bitБиблиотека кодирования : libebml v1.3.3 + libmatroska v1.4.4Обложка : YesAttachments : cover.jpg / cover_small.jpgDIRECTOR : Tommy Pallotta, Femke WoltingGENRE : DocumentaryIMDB : tt1702437KEYWORDS : LAW_RATING : 16+
ВидеоИдентификатор : 1Формат : MPEG VideoВерсия формата : Version 2Профиль формата : Main@MainПараметр BVOP формата : ДаПараметр матрицы формата : ВыборочнаяПараметр GOP формата : M=3, N=36Format_Settings_PictureStructure : FrameИдентификатор кодека : V_MPEG2Идентификатор кодека/Информация : MPEG 1 or 2 VideoПродолжительность : 1 ч. 18 м.Вид битрейта : ПеременныйБитрейт : 1820 Кбит/секШирина : 720 пикселейВысота : 576 пикселейСоотношение сторон : 4:3Режим частоты кадров : ПостоянныйЧастота кадров : 25,000 кадров/секСтандарт вещания : PALЦветовое пространство : YUVСубдискретизация насыщенности : 4:2:0Битовая глубина : 8 битТип развёртки : ЧересстрочнаяПорядок развёртки : Верхнее поле первоеМетод сжатия : С потерямиБит/(Пиксели*Кадры) : 0.175Временной код первого кадра : 00:00:00:00Оригинал временного кода : Group of pictures headerРазмер потока : 1021 Мбайт (89%)Default : ДаForced : Нет
АудиоИдентификатор : 2Формат : MPEG AudioВерсия формата : Version 1Профиль формата : Layer 2Идентификатор кодека : A_MPEG/L2Идентификатор кодека/Подсказка : MP2Продолжительность : 1 ч. 18 м.Вид битрейта : ПостоянныйБитрейт : 192 Кбит/секКаналы : 2 каналаЧастота : 48,0 КГцМетод сжатия : С потерямиРазмер потока : 108 Мбайт (9%)Язык : RussianDefault : ДаForced : Нет

Скриншот c названием фильма

Скриншоты


Резервные скриншоты


[teatrix.ru].t14595.torrent 
Торрент: Зарегистрирован [ 2016-02-09 12:50 ] · F409DC3799BBD5A5D35FDDF88DA6013234AD3725

Скачать .torrent

Скачать

12 KB

Статус: проверено
Скачан: 0 раз
Размер: 1.12 GB
terms.php



Быстрый ответ

Имя:

      
Для отправки сообщений необходимо включить JavaScript
Показать сообщения:    

Текущее время: 11-Дек 11:08

Часовой пояс: UTC + 3


Вы можете начинать темы
Вы можете отвечать на сообщения
Вы не можете редактировать свои сообщения
Вы не можете удалять свои сообщения
Вы не можете голосовать в опросах
Вы не можете прикреплять файлы к сообщениям
Вы можете скачивать файлы