Такешиз / Takeshis (Такеши Китано / Takeshi Kitano) [2005, Япония, драма, комедия, BDRip] MVO + AVO (Антон Карповский) + Sub Rus + Original Jap


 

[Цитировать]

Такешиз / Takeshis
Страна: Япония
Студия: Bandai Visual Co. Ltd., DENTSU Music And Entertainment Inc., Office Kitano, Tokyo FM Broadcasting Co. Ltd., TV Asahi
Жанр: Драма, комедия
Год выпуска: 2005
Продолжительность: 01:47:18
Перевод 1: Профессиональный (многоголосый закадровый) Лицензия R5 от "Cinema Prestige"
Перевод 2: Авторский (одноголосый закадровый) Антон Карповский (внешняя)
Cубтитры: Русский (внешние)
Оригинальная аудиодорожка: Японский
Режиссер: Такеши Китано / Takeshi Kitano
В ролях: Такеши Китано, Котоми Кёно, Каёко Кисимото, Рен Осуги, Сусуму Тэрадзима, Тэцу Ватанабэ, Акихиро Мива, Наомаса Мусака, Коити Уэда, Цутому Такесиге, Бито Киёси, Юня Такаки, Сёго Кимура, Кандзи Цуда, Макото Асикава, Тамоцу Исибаси
Описание: Брюнет Китано — телевизионная звезда бандитских сериалов, разъезжающая с молоденькой ассистенткой-любовницей в Royal-Royce. Блондин Китано — владелец маленького магазинчика всякой мелкой всячины, неудачник безнадежно приходящий на ТВ-кастинги. Каждому снится сон про себя и другого Китано. Сны перемешиваются друг с другом в хаотическую феерию, образы повторяются и сталкиваются. Китано реальный цитирует собственные фильмы, вспоминает свои клоунские телевизионные шоу, его мучают навязчивые образы, преследующие стереотипы якудза-имиджа. Переживания режиссера на темы его восприятия окружающей средой выражены той самой беспорядочной избыточностью стрельбы, с которой массовое сознание связывает его имя и образ.
Дополнительная информация:
Автор релиза - ylnian
За выделение чистых голосов и сборку дорог спасибо rammzez
Источник для рипа - BluRay (GER) - Takeshis.2005.GERMAN.SUBBED.COMPLETE.BLURAY-iFPD


Сэмпл: https://yadi.sk/i/3wcwybLjoM3Kg
Качество видео: BDRip
Формат видео: AVI
Видео: XviD, 704x384 (1,85:1), 24.000 fps, 1494 kbps, 0.230 bit/pixel
Аудио 1: Русский AC3, 48000 Гц, 6ch, 448 kbps - MVO (в контейнере)
Аудио 2: Русский AC3, 48000 Гц, 6ch, 448 kbps - AVO (внешняя)
Аудио 3: Японский AC3, 48000 Гц, 6ch, 448 kbps - внешняя
Формат субтитров: softsub (SRT)

MediaInfo

Общее
Полное имя : E:\Takeshiz.2005.BDRip-ylnian\Takeshiz.2005.BDRip-ylnian.avi
Формат : AVI
Формат/Информация : Audio Video Interleave
Размер файла : 1,46 Гбайт
Продолжительность : 1 ч. 47 м.
Общий поток : 1951 Кбит/сек
Программа кодирования : VirtualDubMod 1.5.10.2 (build 2540/release)
Библиотека кодирования : VirtualDubMod build 2540/release
Видео
Идентификатор : 0
Формат : MPEG-4 Visual
Профиль формата : Advanced Simple@L5
Параметр BVOP формата : 1
Параметр QPel формата : Нет
Параметр GMC формата : Без точки перехода
Параметр матрицы формата : Default (MPEG)
Идентификатор кодека : XVID
Идентификатор кодека/Подсказка : XviD
Продолжительность : 1 ч. 47 м.
Битрейт : 1494 Кбит/сек
Ширина : 704 пикселя
Высота : 384 пикселя
Соотношение сторон : 1,85:1
Частота кадров : 24,000 кадра/сек
Цветовое пространство : YUV
Субдискретизация насыщенности : 4:2:0
Битовая глубина : 8 бит
Тип развёртки : Прогрессивная
Метод сжатия : С потерями
Бит/(Пиксели*Кадры) : 0.230
Размер потока : 1,12 Гбайт (77%)
Библиотека кодирования : XviD 67
Аудио
Идентификатор : 1
Формат : AC-3
Формат/Информация : Audio Coding 3
Расширение режима : CM (complete main)
Параметр Endianness формата : Big
Идентификатор кодека : 2000
Продолжительность : 1 ч. 47 м.
Вид битрейта : Постоянный
Битрейт : 448 Кбит/сек
Каналы : 6 каналов
Расположение каналов : Front: L C R, Side: L R, LFE
Частота : 48,0 КГц
Частота кадров : 31,250 кадров/сек (1536 spf)
Метод сжатия : С потерями
Размер потока : 344 Мбайт (23%)
Выравнивание : Разделение по промежуткам
Продолжительность промежутка : 42 мс. (1,00 видеокадр)
Время предзагрузки промежутка : 500 мс.
Общее
Полное имя : E:\Takeshiz.2005.BDRip-ylnian\Takeshiz.2005.BDRip-ylnian_avo.ac3
Формат : AC-3
Формат/Информация : Audio Coding 3
Размер файла : 344 Мбайт
Продолжительность : 1 ч. 47 м.
Режим общего битрейта : Постоянный
Общий поток : 448 Кбит/сек
Аудио
Формат : AC-3
Формат/Информация : Audio Coding 3
Расширение режима : CM (complete main)
Параметр Endianness формата : Big
Продолжительность : 1 ч. 47 м.
Вид битрейта : Постоянный
Битрейт : 448 Кбит/сек
Каналы : 6 каналов
Расположение каналов : Front: L C R, Side: L R, LFE
Частота : 48,0 КГц
Частота кадров : 31,250 кадров/сек (1536 spf)
Метод сжатия : С потерями
Размер потока : 344 Мбайт (100%)
Общее
Полное имя : E:\Takeshiz.2005.BDRip-ylnian\Takeshiz.2005.BDRip-ylnian_jpn.ac3
Формат : AC-3
Формат/Информация : Audio Coding 3
Размер файла : 344 Мбайт
Продолжительность : 1 ч. 47 м.
Режим общего битрейта : Постоянный
Общий поток : 448 Кбит/сек
Аудио
Формат : AC-3
Формат/Информация : Audio Coding 3
Расширение режима : CM (complete main)
Параметр Endianness формата : Big
Продолжительность : 1 ч. 47 м.
Вид битрейта : Постоянный
Битрейт : 448 Кбит/сек
Каналы : 6 каналов
Расположение каналов : Front: L C R, Side: L R, LFE
Частота : 48,0 КГц
Частота кадров : 31,250 кадров/сек (1536 spf)
Метод сжатия : С потерями
Размер потока : 344 Мбайт (100%)
Общее
Полное имя : E:\Takeshiz.2005.BDRip-ylnian\Takeshiz.2005.BDRip-ylnian_rus.srt
Формат : SubRip
Размер файла : 44,8 Кбайт
Текст
Формат : SubRip
Метод сжатия : Без потерь

Скриншот c названием фильма

Скриншоты




Показать сообщения:    

Текущее время: 06-Дек 17:10

Часовой пояс: UTC + 3


Вы не можете начинать темы
Вы не можете отвечать на сообщения
Вы не можете редактировать свои сообщения
Вы не можете удалять свои сообщения
Вы не можете голосовать в опросах
Вы не можете прикреплять файлы к сообщениям
Вы не можете скачивать файлы