Прямо сейчас, а не после / Так – хорошо, в другой раз – плохо / Ji-geum-eun-mat-go-geu-ddae-neun-teul-li-da / Right Now, Wrong Then (Хон Сан Су / Sang-soo Hong) [2015, Южная Корея, драма, DVDRip] Original Kor + Sub Rus


Статистика раздачи [Обновить пиров]
Размер:  1.47 GB   |    Зарегистрирован:  10 месяцев 1 день   |    Скачан:  1 раз

Полного источника не было: 1 месяц 18 дней

Личеров:  43  [  0 KB/s  ]   Подробная статистика пиров
 
   
 
 
 

[Цитировать]

Прямо сейчас, а не после / Так – хорошо, в другой раз – плохо / Ji-geum-eun-mat-go-geu-ddae-neun-teul-li-da / Right Now, Wrong Then
Страна: Южная Корея
Жанр: драма
Год выпуска: 2015
Продолжительность: 02:00:55
Перевод: Субтитры
Cубтитры: русские
Оригинальная аудиодорожка: корейская
Режиссер: Хон Сан Су / Sang-soo Hong
В ролях: Чон Чжэ Ён/Jae-yeong Jeong, Ким Мин Хи/Min-hee Kim, Юн Ё Чжон/Yeo-jeong Yoon, Ки Джу Бон/Ju-bong Gi, Хва-Жонг Чхве/Hwa-Jeong Choi, Ю Чжун Сан/Joon-sang Yoo, Сео Янг Хва/Young-hwa Seo, Ко А Сон/Ah-sung Ko
Описание: Кинорежиссёр Хам Цон Су приехал прочитать лекцию и открыть показ своего фильма. Приехал он на день раньше, поэтому накануне лекции гуляет, посещает каток с девушкой, которая мечтает стать его ассистенткой, осматривает храм. Там он знакомится с Хи Чон, красивой девушкой, которую он видел раньше, у храмовых ворот. Хи Чон – художница, и, после того, как они побеседовали об искусстве в кафе, Хам Цон Су отправляется с ней в студию, чтобы посмотреть её картины. Потом они довольно сильно выпивают в суши-ресторане, а затем идут на вечеринку к подруге Хи Чон. Наутро, в жестоком похмелье, кинорежиссёр ссорится с кинокритиком-интервьюером и уезжает. И это ровно половина фильма. Во второй половине фильм кинорежиссёр Хам Цон Су приезжает прочитать лекцию и открыть показ своего фильма…
Семнадцатый фильм Хон Сан Су снова тяготеет к двухчастной структуре (иногда в его фильмах встречалась трёхчастная), когда две «половины» фильма отличаются на первый взгляд какими-то мелочами или частностями. Но, присмотревшись, отыскиваются точки невозврата, после которых отношения персонажей резко меняются. Это точки выбора, «так – хорошо, в другой раз – плохо», в которых не только фразы, но и интонация, с которой они произносятся, влияет на будущее, на развитие сюжета. Те зрители, которые уже полюбили мир Хон Сан Су, отыщут и в этой работе фирменные зумы, простые мизансцены, актёрскую игру после трёх бутылок соджу – и неподдельные чувства персонажей, столь точно уловленные режиссёром.
Доп. информация: Перевод – daft-digger, подготовка субтитров – alex-kin.
Сэмпл: http://multi-up.com/1087781
Качество видео: DVDRip
Формат видео: AVI
Видео: XviD build 50 at 1532 kbps, 0.17 bit/pixel, 720x408 (1.76:1) at 29.970 fps
Аудио: AC3 Dolby Digital at 192 kbps, 2/0 (L,R) ch, 48 kHz
Формат субтитров: softsub (SRT)

MediaInfo

Формат : AVI
Формат/Информация : Audio Video Interleave
Размер файла : 1,47 Гбайт
Продолжительность : 2 ч. 0 м.
Общий поток : 1736 Кбит/сек
Программа кодирования : VirtualDubMod 1.5.10.3 | www.virtualdub-fr.org || (build 2550/release)
Библиотека кодирования : VirtualDubMod build 2550/release
Видео
Идентификатор : 0
Формат : MPEG-4 Visual
Профиль формата : Advanced Simple@L5
Параметр BVOP формата : 1
Параметр QPel формата : Нет
Параметр GMC формата : Без точки перехода
Параметр матрицы формата : Default (MPEG)
Идентификатор кодека : XVID
Идентификатор кодека/Подсказка : XviD
Продолжительность : 2 ч. 0 м.
Битрейт : 1532 Кбит/сек
Ширина : 720 пикс.
Высота : 408 пикс.
Соотношение сторон : 16:9
Частота кадров : 29,970 кадр/сек
Цветовое пространство : YUV
Подвыборка цветности : 4:2:0
Битовая глубина : 8 бит
Тип развёртки : Прогрессивная
Метод сжатия : С потерями
Бит/(Пиксели*Кадры) : 0.174
Размер потока : 1,29 Гбайт (88%)
Библиотека кодирования : XviD 1.2.1 (UTC 2008-12-04)
Аудио
Идентификатор : 1
Формат : AC-3
Формат/Информация : Audio Coding 3
Расширение режима : CM (complete main)
Идентификатор кодека : 2000
Продолжительность : 2 ч. 0 м.
Вид битрейта : Постоянный
Битрейт : 192 Кбит/сек
Канал(ы) : 2 канала(ов)
Расположение каналов : Front: L R
Частота : 48,0 КГц
Битовая глубина : 16 бит
Метод сжатия : С потерями
Размер потока : 166 Мбайт (11%)
Выравнивание : Разделение по промежуткам
Продолжительность промежутка : 33 мс. (1,00 видеокадр)
Время предзагрузки промежутка : 500 ms

Фрагмент субтитров

1
00:00:06,030 --> 00:00:10,980
Производство
Jeonwonsa Film Co.
2
00:00:10,981 --> 00:00:15,141
В ролях: Чон Чжэ Ён, Ким Мин Хи,
Юн Ё Чжон, Ки Джу Бон,
3
00:00:15,142 --> 00:00:20,199
Хва-Жонг Чхве, Ю Чжун Сан,
Со Янг Хва, Ко А Сон.
4
00:00:20,200 --> 00:00:25,639
17 фильм Хон Сан Су.
5
00:00:30,640 --> 00:01:13,932
1. СРАЗУ ПОСЛЕ, А НЕ СЕЙЧАС
6
00:01:28,232 --> 00:01:30,232
Я впервые в Сувоне.
7
00:01:31,132 --> 00:01:34,360
Я гулял по рыночной площади,
перед Дворцом Хэнгун.
8
00:01:35,460 --> 00:01:39,050
Через дорогу была кофейня,
так что я купил себе чашку кофе.
9
00:02:24,850 --> 00:02:26,950
Ух, какая она красивая!
10
00:02:27,860 --> 00:02:30,990
Эта девушка...
Такая стройная и молодая.
11
00:02:33,100 --> 00:02:35,910
Нужно быть осторожней.
Она слишком красивая.
12
00:02:44,665 --> 00:02:46,032
- Вы не устали?
- Нет...
13
00:02:46,033 --> 00:02:47,401
- Все хорошо?
- Да, хорошо.
14
00:02:50,337 --> 00:02:54,474
- Это там саночный каток?
- Тот? Да, это он.
15
00:02:56,000 --> 00:02:59,000
- Можно мне тоже закурить?
- Да, конечно.
16
00:03:03,300 --> 00:03:05,800
Удивительно, что в таком месте
есть саночный каток.
17
00:03:08,800 --> 00:03:10,400
Вы проголодались?
18
00:03:10,500 --> 00:03:15,710
Да, я немного голоден,
но я бы хотел сходить туда.
19
00:03:15,711 --> 00:03:18,750
Поверить не могу,
что здесь есть саночный каток.
20
00:03:18,850 --> 00:03:20,000
Так и есть.

Скриншот c названием фильма

Скриншоты

[teatrix.ru].t14597.torrent 
Торрент: Зарегистрирован [ 2016-02-09 12:50 ] · 3E5A7357789193B89A67E862ED60AC3ECE41385B

Скачать .torrent

Скачать

15 KB

Статус: проверено
Скачан: 1 раз
Размер: 1.47 GB
terms.php



Быстрый ответ

Имя:

      
Для отправки сообщений необходимо включить JavaScript
Показать сообщения:    

Текущее время: 11-Дек 09:12

Часовой пояс: UTC + 3


Вы можете начинать темы
Вы можете отвечать на сообщения
Вы не можете редактировать свои сообщения
Вы не можете удалять свои сообщения
Вы не можете голосовать в опросах
Вы не можете прикреплять файлы к сообщениям
Вы можете скачивать файлы